  0
SECTION
  2
HEADER
  9
$ACADVER
  1
AC1018
  9
$ACADMAINTVER
 70
    39
  9
$DWGCODEPAGE
  3
ANSI_1252
  9
$LASTSAVEDBY
  1
Autodesk
  9
$INSBASE
 10
0.0
 20
0.0
 30
0.0
  9
$EXTMIN
 10
44.38358346926952
 20
183.8831935814121
 30
0.0
  9
$EXTMAX
 10
418.7835954292699
 20
255.2830390100047
 30
0.0
  9
$LIMMIN
 10
0.0
 20
0.0
  9
$LIMMAX
 10
420.0
 20
297.0
  9
$ORTHOMODE
 70
     0
  9
$REGENMODE
 70
     1
  9
$FILLMODE
 70
     1
  9
$QTEXTMODE
 70
     0
  9
$MIRRTEXT
 70
     0
  9
$LTSCALE
 40
1.0
  9
$ATTMODE
 70
     1
  9
$TEXTSIZE
 40
2.5
  9
$TRACEWID
 40
1.0
  9
$TEXTSTYLE
  7
Standard
  9
$CLAYER
  8
0
  9
$CELTYPE
  6
ByLayer
  9
$CECOLOR
 62
   256
  9
$CELTSCALE
 40
1.0
  9
$DISPSILH
 70
     0
  9
$DIMSCALE
 40
1.0
  9
$DIMASZ
 40
2.5
  9
$DIMEXO
 40
0.625
  9
$DIMDLI
 40
3.75
  9
$DIMRND
 40
0.0
  9
$DIMDLE
 40
0.0
  9
$DIMEXE
 40
1.25
  9
$DIMTP
 40
0.0
  9
$DIMTM
 40
0.0
  9
$DIMTXT
 40
2.5
  9
$DIMCEN
 40
2.5
  9
$DIMTSZ
 40
0.0
  9
$DIMTOL
 70
     0
  9
$DIMLIM
 70
     0
  9
$DIMTIH
 70
     0
  9
$DIMTOH
 70
     0
  9
$DIMSE1
 70
     0
  9
$DIMSE2
 70
     0
  9
$DIMTAD
 70
     1
  9
$DIMZIN
 70
     8
  9
$DIMBLK
  1

  9
$DIMASO
 70
     1
  9
$DIMSHO
 70
     1
  9
$DIMPOST
  1

  9
$DIMAPOST
  1

  9
$DIMALT
 70
     0
  9
$DIMALTD
 70
     3
  9
$DIMALTF
 40
0.03937007874016
  9
$DIMLFAC
 40
1.0
  9
$DIMTOFL
 70
     1
  9
$DIMTVP
 40
0.0
  9
$DIMTIX
 70
     0
  9
$DIMSOXD
 70
     0
  9
$DIMSAH
 70
     0
  9
$DIMBLK1
  1

  9
$DIMBLK2
  1

  9
$DIMSTYLE
  2
ISO-25
  9
$DIMCLRD
 70
     0
  9
$DIMCLRE
 70
     0
  9
$DIMCLRT
 70
     0
  9
$DIMTFAC
 40
1.0
  9
$DIMGAP
 40
0.625
  9
$DIMJUST
 70
     0
  9
$DIMSD1
 70
     0
  9
$DIMSD2
 70
     0
  9
$DIMTOLJ
 70
     0
  9
$DIMTZIN
 70
     8
  9
$DIMALTZ
 70
     0
  9
$DIMALTTZ
 70
     0
  9
$DIMUPT
 70
     0
  9
$DIMDEC
 70
     2
  9
$DIMTDEC
 70
     2
  9
$DIMALTU
 70
     2
  9
$DIMALTTD
 70
     3
  9
$DIMTXSTY
  7
Standard
  9
$DIMAUNIT
 70
     0
  9
$DIMADEC
 70
     0
  9
$DIMALTRND
 40
0.0
  9
$DIMAZIN
 70
     0
  9
$DIMDSEP
 70
    44
  9
$DIMATFIT
 70
     3
  9
$DIMFRAC
 70
     0
  9
$DIMLDRBLK
  1

  9
$DIMLUNIT
 70
     2
  9
$DIMLWD
 70
    -2
  9
$DIMLWE
 70
    -2
  9
$DIMTMOVE
 70
     0
  9
$LUNITS
 70
     2
  9
$LUPREC
 70
     4
  9
$SKETCHINC
 40
1.0
  9
$FILLETRAD
 40
0.0
  9
$AUNITS
 70
     0
  9
$AUPREC
 70
     0
  9
$MENU
  1
.
  9
$ELEVATION
 40
0.0
  9
$PELEVATION
 40
0.0
  9
$THICKNESS
 40
0.0
  9
$LIMCHECK
 70
     0
  9
$CHAMFERA
 40
0.0
  9
$CHAMFERB
 40
0.0
  9
$CHAMFERC
 40
0.0
  9
$CHAMFERD
 40
0.0
  9
$SKPOLY
 70
     0
  9
$TDCREATE
 40
2454706.655656215
  9
$TDUCREATE
 40
2454706.572322882
  9
$TDUPDATE
 40
2454706.656375301
  9
$TDUUPDATE
 40
2454706.573041968
  9
$TDINDWG
 40
0.0007194444
  9
$TDUSRTIMER
 40
0.0007194444
  9
$USRTIMER
 70
     1
  9
$ANGBASE
 50
0.0
  9
$ANGDIR
 70
     0
  9
$PDMODE
 70
     0
  9
$PDSIZE
 40
0.0
  9
$PLINEWID
 40
0.0
  9
$SPLFRAME
 70
     0
  9
$SPLINETYPE
 70
     6
  9
$SPLINESEGS
 70
     8
  9
$HANDSEED
  5
1FB
  9
$SURFTAB1
 70
     6
  9
$SURFTAB2
 70
     6
  9
$SURFTYPE
 70
     6
  9
$SURFU
 70
     6
  9
$SURFV
 70
     6
  9
$UCSBASE
  2

  9
$UCSNAME
  2

  9
$UCSORG
 10
0.0
 20
0.0
 30
0.0
  9
$UCSXDIR
 10
1.0
 20
0.0
 30
0.0
  9
$UCSYDIR
 10
0.0
 20
1.0
 30
0.0
  9
$UCSORTHOREF
  2

  9
$UCSORTHOVIEW
 70
     0
  9
$UCSORGTOP
 10
0.0
 20
0.0
 30
0.0
  9
$UCSORGBOTTOM
 10
0.0
 20
0.0
 30
0.0
  9
$UCSORGLEFT
 10
0.0
 20
0.0
 30
0.0
  9
$UCSORGRIGHT
 10
0.0
 20
0.0
 30
0.0
  9
$UCSORGFRONT
 10
0.0
 20
0.0
 30
0.0
  9
$UCSORGBACK
 10
0.0
 20
0.0
 30
0.0
  9
$PUCSBASE
  2

  9
$PUCSNAME
  2

  9
$PUCSORG
 10
0.0
 20
0.0
 30
0.0
  9
$PUCSXDIR
 10
1.0
 20
0.0
 30
0.0
  9
$PUCSYDIR
 10
0.0
 20
1.0
 30
0.0
  9
$PUCSORTHOREF
  2

  9
$PUCSORTHOVIEW
 70
     0
  9
$PUCSORGTOP
 10
0.0
 20
0.0
 30
0.0
  9
$PUCSORGBOTTOM
 10
0.0
 20
0.0
 30
0.0
  9
$PUCSORGLEFT
 10
0.0
 20
0.0
 30
0.0
  9
$PUCSORGRIGHT
 10
0.0
 20
0.0
 30
0.0
  9
$PUCSORGFRONT
 10
0.0
 20
0.0
 30
0.0
  9
$PUCSORGBACK
 10
0.0
 20
0.0
 30
0.0
  9
$USERI1
 70
     0
  9
$USERI2
 70
     0
  9
$USERI3
 70
     0
  9
$USERI4
 70
     0
  9
$USERI5
 70
     0
  9
$USERR1
 40
0.0
  9
$USERR2
 40
0.0
  9
$USERR3
 40
0.0
  9
$USERR4
 40
0.0
  9
$USERR5
 40
0.0
  9
$WORLDVIEW
 70
     1
  9
$SHADEDGE
 70
     3
  9
$SHADEDIF
 70
    70
  9
$TILEMODE
 70
     1
  9
$MAXACTVP
 70
    64
  9
$PINSBASE
 10
0.0
 20
0.0
 30
0.0
  9
$PLIMCHECK
 70
     0
  9
$PEXTMIN
 10
0.0
 20
0.0
 30
0.0
  9
$PEXTMAX
 10
0.0
 20
0.0
 30
0.0
  9
$PLIMMIN
 10
0.0
 20
0.0
  9
$PLIMMAX
 10
12.0
 20
9.0
  9
$UNITMODE
 70
     0
  9
$VISRETAIN
 70
     1
  9
$PLINEGEN
 70
     0
  9
$PSLTSCALE
 70
     1
  9
$TREEDEPTH
 70
  3020
  9
$CMLSTYLE
  2
Standard
  9
$CMLJUST
 70
     0
  9
$CMLSCALE
 40
20.0
  9
$PROXYGRAPHICS
 70
     1
  9
$MEASUREMENT
 70
     1
  9
$CELWEIGHT
370
    -1
  9
$ENDCAPS
280
     0
  9
$JOINSTYLE
280
     0
  9
$LWDISPLAY
290
     0
  9
$INSUNITS
 70
     4
  9
$HYPERLINKBASE
  1

  9
$STYLESHEET
  1

  9
$XEDIT
290
     1
  9
$CEPSNTYPE
380
     0
  9
$PSTYLEMODE
290
     1
  9
$FINGERPRINTGUID
  2
{2913412B-1269-4163-ADD4-3DE159D9BA8A}
  9
$VERSIONGUID
  2
{1FB0EC8C-D098-470E-8C46-910113CFA48B}
  9
$EXTNAMES
290
     1
  9
$PSVPSCALE
 40
0.0
  9
$OLESTARTUP
290
     0
  9
$SORTENTS
280
   127
  9
$INDEXCTL
280
     0
  9
$HIDETEXT
280
     1
  9
$XCLIPFRAME
290
     0
  9
$HALOGAP
280
     0
  9
$OBSCOLOR
 70
   257
  9
$OBSLTYPE
280
     0
  9
$INTERSECTIONDISPLAY
280
     0
  9
$INTERSECTIONCOLOR
 70
   257
  9
$DIMASSOC
280
     2
  9
$PROJECTNAME
  1

  0
ENDSEC
  0
SECTION
  2
CLASSES
  0
CLASS
  1
ACDBDICTIONARYWDFLT
  2
AcDbDictionaryWithDefault
  3
ObjectDBX Classes
 90
        0
 91
        1
280
     0
281
     0
  0
CLASS
  1
DICTIONARYVAR
  2
AcDbDictionaryVar
  3
ObjectDBX Classes
 90
        0
 91
        3
280
     0
281
     0
  0
CLASS
  1
TABLESTYLE
  2
AcDbTableStyle
  3
ObjectDBX Classes
 90
     2047
 91
        1
280
     0
281
     0
  0
CLASS
  1
SORTENTSTABLE
  2
AcDbSortentsTable
  3
ObjectDBX Classes
 90
        0
 91
        1
280
     0
281
     0
  0
CLASS
  1
DIMASSOC
  2
AcDbDimAssoc
  3
"AcDbDimAssoc|Product Desc:     AcDim ARX App For Dimension|Company:          Autodesk, Inc.|WEB Address:      www.autodesk.com"
 90
        0
 91
        1
280
     0
281
     0
  0
ENDSEC
  0
SECTION
  2
TABLES
  0
TABLE
  2
VPORT
  5
8
330
0
100
AcDbSymbolTable
 70
     3
  0
VPORT
  5
1FA
330
8
100
AcDbSymbolTableRecord
100
AcDbViewportTableRecord
  2
*Active
 70
     0
 10
0.0
 20
0.0
 11
1.0
 21
1.0
 12
466.7578747149045
 22
196.0376034420908
 13
0.0
 23
0.0
 14
10.0
 24
10.0
 15
10.0
 25
10.0
 16
0.0
 26
0.0
 36
1.0
 17
0.0
 27
0.0
 37
0.0
 40
186.85176685822
 41
4.582524271844659
 42
50.0
 43
0.0
 44
0.0
 50
0.0
 51
0.0
 71
     0
 72
  1000
 73
     1
 74
     3
 75
     0
 76
     0
 77
     0
 78
     0
281
     0
 65
     1
110
0.0
120
0.0
130
0.0
111
1.0
121
0.0
131
0.0
112
0.0
122
1.0
132
0.0
 79
     0
146
0.0
  0
ENDTAB
  0
TABLE
  2
LTYPE
  5
5
330
0
100
AcDbSymbolTable
 70
     1
  0
LTYPE
  5
14
330
5
100
AcDbSymbolTableRecord
100
AcDbLinetypeTableRecord
  2
ByBlock
 70
     0
  3

 72
    65
 73
     0
 40
0.0
  0
LTYPE
  5
15
330
5
100
AcDbSymbolTableRecord
100
AcDbLinetypeTableRecord
  2
ByLayer
 70
     0
  3

 72
    65
 73
     0
 40
0.0
  0
LTYPE
  5
16
330
5
100
AcDbSymbolTableRecord
100
AcDbLinetypeTableRecord
  2
Continuous
 70
     0
  3
Solid line
 72
    65
 73
     0
 40
0.0
  0
ENDTAB
  0
TABLE
  2
LAYER
  5
2
330
0
100
AcDbSymbolTable
 70
     3
  0
LAYER
  5
10
330
2
100
AcDbSymbolTableRecord
100
AcDbLayerTableRecord
  2
0
 70
     0
 62
     7
  6
Continuous
370
    -3
390
F
  0
LAYER
  5
EF
330
2
100
AcDbSymbolTableRecord
100
AcDbLayerTableRecord
  2
1
 70
     0
 62
     7
  6
Continuous
370
    -3
390
F
  0
LAYER
  5
1E2
330
2
100
AcDbSymbolTableRecord
100
AcDbLayerTableRecord
  2
Defpoints
 70
     0
 62
     7
  6
Continuous
290
     0
370
    -3
390
F
  0
ENDTAB
  0
TABLE
  2
STYLE
  5
3
330
0
100
AcDbSymbolTable
 70
     2
  0
STYLE
  5
11
330
3
100
AcDbSymbolTableRecord
100
AcDbTextStyleTableRecord
  2
Standard
 70
     0
 40
0.0
 41
1.0
 50
0.0
 71
     0
 42
2.5
  3
txt
  4

  0
STYLE
  5
F0
330
3
100
AcDbSymbolTableRecord
100
AcDbTextStyleTableRecord
  2
TXT
 70
     0
 40
0.0
 41
1.0
 50
0.0
 71
     0
 42
0.2
  3

  4

  0
ENDTAB
  0
TABLE
  2
VIEW
  5
6
330
0
100
AcDbSymbolTable
 70
     0
  0
ENDTAB
  0
TABLE
  2
UCS
  5
7
330
0
100
AcDbSymbolTable
 70
     0
  0
ENDTAB
  0
TABLE
  2
APPID
  5
9
330
0
100
AcDbSymbolTable
 70
     2
  0
APPID
  5
12
330
9
100
AcDbSymbolTableRecord
100
AcDbRegAppTableRecord
  2
ACAD
 70
     0
  0
APPID
  5
9E
330
9
100
AcDbSymbolTableRecord
100
AcDbRegAppTableRecord
  2
ACAD_PSEXT
 70
     0
  0
ENDTAB
  0
TABLE
  2
DIMSTYLE
  5
A
330
0
100
AcDbSymbolTable
 70
     2
100
AcDbDimStyleTable
 71
     1
340
27
  0
DIMSTYLE
105
27
102
{ACAD_REACTORS
330
1E1
102
}
330
A
100
AcDbSymbolTableRecord
100
AcDbDimStyleTableRecord
  2
ISO-25
 70
     0
 41
2.5
 42
0.625
 43
3.75
 44
1.25
 73
     0
 74
     0
 77
     1
 78
     8
140
2.5
141
2.5
143
0.03937007874016
147
0.625
171
     3
172
     1
271
     2
272
     2
274
     3
278
    44
283
     0
284
     8
340
11
  0
DIMSTYLE
105
F1
330
A
100
AcDbSymbolTableRecord
100
AcDbDimStyleTableRecord
  2
Standard
 70
     0
340
11
  0
ENDTAB
  0
TABLE
  2
BLOCK_RECORD
  5
1
330
0
100
AcDbSymbolTable
 70
     3
  0
BLOCK_RECORD
  5
1F
330
1
100
AcDbSymbolTableRecord
100
AcDbBlockTableRecord
  2
*Model_Space
340
22
  0
BLOCK_RECORD
  5
D2
330
1
100
AcDbSymbolTableRecord
100
AcDbBlockTableRecord
  2
*Paper_Space
340
D3
  0
BLOCK_RECORD
  5
D6
330
1
100
AcDbSymbolTableRecord
100
AcDbBlockTableRecord
  2
*Paper_Space0
340
D7
  0
BLOCK_RECORD
  5
1E3
330
1
100
AcDbSymbolTableRecord
100
AcDbBlockTableRecord
  2
*D2
340
0
  0
ENDTAB
  0
ENDSEC
  0
SECTION
  2
BLOCKS
  0
BLOCK
  5
20
330
1F
100
AcDbEntity
  8
0
100
AcDbBlockBegin
  2
*Model_Space
 70
     0
 10
0.0
 20
0.0
 30
0.0
  3
*Model_Space
  1

  0
ENDBLK
  5
21
330
1F
100
AcDbEntity
  8
0
100
AcDbBlockEnd
  0
BLOCK
  5
D4
330
D2
100
AcDbEntity
 67
     1
  8
0
100
AcDbBlockBegin
  2
*Paper_Space
 70
     0
 10
0.0
 20
0.0
 30
0.0
  3
*Paper_Space
  1

  0
ENDBLK
  5
D5
330
D2
100
AcDbEntity
 67
     1
  8
0
100
AcDbBlockEnd
  0
BLOCK
  5
D8
330
D6
100
AcDbEntity
  8
0
100
AcDbBlockBegin
  2
*Paper_Space0
 70
     0
 10
0.0
 20
0.0
 30
0.0
  3
*Paper_Space0
  1

  0
ENDBLK
  5
D9
330
D6
100
AcDbEntity
  8
0
100
AcDbBlockEnd
  0
BLOCK
  5
1ED
330
1E3
100
AcDbEntity
  8
0
100
AcDbBlockBegin
  2
*D2
 70
     1
 10
0.0
 20
0.0
 30
0.0
  3
*D2
  1

  0
LINE
  5
1F0
330
1E3
100
AcDbEntity
  8
0
 62
     0
370
    -2
100
AcDbLine
 10
44.38358346926952
 20
205.308191501412
 30
0.0
 11
44.38358346926952
 21
252.9913723433379
 31
0.0
  0
LINE
  5
1F1
330
1E3
100
AcDbEntity
  8
0
 62
     0
370
    -2
100
AcDbLine
 10
418.7835954292699
 20
205.308191501412
 30
0.0
 11
418.7835954292699
 21
252.9913723433379
 31
0.0
  0
LINE
  5
1F2
330
1E3
100
AcDbEntity
  8
0
 62
     0
370
    -2
100
AcDbLine
 10
46.88358346926952
 20
251.741372343338
 30
0.0
 11
416.28359542927
 21
251.741372343338
 31
0.0
  0
SOLID
  5
1F3
330
1E3
100
AcDbEntity
  8
0
 62
     0
100
AcDbTrace
 10
46.88358346926952
 20
252.1580390100046
 30
0.0
 11
46.88358346926952
 21
251.3247056766713
 31
0.0
 12
44.38358346926952
 22
251.741372343338
 32
0.0
 13
44.38358346926952
 23
251.741372343338
 33
0.0
  0
SOLID
  5
1F4
330
1E3
100
AcDbEntity
  8
0
 62
     0
100
AcDbTrace
 10
416.28359542927
 20
252.1580390100046
 30
0.0
 11
416.28359542927
 21
251.3247056766713
 31
0.0
 12
418.7835954292699
 22
251.741372343338
 32
0.0
 13
418.7835954292699
 23
251.741372343338
 33
0.0
  0
MTEXT
  5
1F5
330
1E3
100
AcDbEntity
  8
0
 62
     0
100
AcDbMText
 10
231.5835894492697
 20
253.8247056766713
 30
0.0
 40
2.5
 41
0.0
 71
     5
 72
     1
  1
374,4
 73
     1
 44
1.0
  0
POINT
  5
1F6
330
1E3
100
AcDbEntity
  8
Defpoints
 62
     0
100
AcDbPoint
 10
44.38358346926952
 20
204.683191501412
 30
0.0
  0
POINT
  5
1F7
330
1E3
100
AcDbEntity
  8
Defpoints
 62
     0
100
AcDbPoint
 10
418.7835954292699
 20
204.683191501412
 30
0.0
  0
POINT
  5
1F8
330
1E3
100
AcDbEntity
  8
Defpoints
 62
     0
100
AcDbPoint
 10
418.7835954292699
 20
251.741372343338
 30
0.0
  0
ENDBLK
  5
1EE
330
1E3
100
AcDbEntity
  8
0
100
AcDbBlockEnd
  0
ENDSEC
  0
SECTION
  2
ENTITIES
  0
ARC
  5
16C
330
1F
100
AcDbEntity
  8
1
 62
     1
100
AcDbCircle
 10
177.7656266532694
 20
190.989404589412
 30
0.0
 40
1.56
100
AcDbArc
 50
293.9681180000054
 51
6.031878399999522
  0
ARC
  5
16D
330
1F
100
AcDbEntity
  8
1
 62
     1
100
AcDbCircle
 10
170.5835075012696
 20
190.989404589412
 30
0.0
 40
1.56
100
AcDbArc
 50
173.9681282999967
 51
246.0318832999965
  0
ARC
  5
16E
330
1F
100
AcDbEntity
  8
1
 62
     1
100
AcDbCircle
 10
174.1745670772693
 20
199.0671503174119
 30
0.0
 40
10.4
100
AcDbArc
 50
246.0318832999965
 51
293.9681180000054
  0
ARC
  5
16F
330
1F
100
AcDbEntity
  8
1
 62
     1
100
AcDbCircle
 10
174.1745670772693
 20
197.209302429412
 30
0.0
 40
1.56
100
AcDbArc
 50
53.96812160000582
 51
126.0318800000167
  0
ARC
  5
170
330
1F
100
AcDbEntity
  8
1
 62
     1
100
AcDbCircle
 10
179.3745670772696
 20
190.060472741412
 30
0.0
 40
10.4
100
AcDbArc
 50
126.0318800000167
 51
173.9681282999967
  0
ARC
  5
171
330
1F
100
AcDbEntity
  8
1
 62
     1
100
AcDbCircle
 10
168.9745670772695
 20
190.060472741412
 30
0.0
 40
10.4
100
AcDbArc
 50
6.031878399999522
 51
53.96812160000582
  0
ARC
  5
172
330
1F
100
AcDbEntity
  8
1
 62
     1
100
AcDbCircle
 10
179.3745670772696
 20
190.060472741412
 30
0.0
 40
10.4
100
AcDbArc
 50
119.9913563000009
 51
120.0000032999959
  0
ARC
  5
173
330
1F
100
AcDbEntity
  8
1
 62
     1
100
AcDbCircle
 10
341.5656266532697
 20
190.989404589412
 30
0.0
 40
1.56
100
AcDbArc
 50
293.9681180000054
 51
6.031878399999522
  0
ARC
  5
174
330
1F
100
AcDbEntity
  8
1
 62
     1
100
AcDbCircle
 10
334.3835075012694
 20
190.989404589412
 30
0.0
 40
1.56
100
AcDbArc
 50
173.9681282999967
 51
246.0318832999965
  0
ARC
  5
175
330
1F
100
AcDbEntity
  8
1
 62
     1
100
AcDbCircle
 10
337.9745670772695
 20
199.0671503174119
 30
0.0
 40
10.4
100
AcDbArc
 50
246.0318832999965
 51
293.9681180000054
  0
ARC
  5
176
330
1F
100
AcDbEntity
  8
1
 62
     1
100
AcDbCircle
 10
337.9745670772695
 20
197.209302429412
 30
0.0
 40
1.56
100
AcDbArc
 50
53.96812160000582
 51
126.0318800000167
  0
ARC
  5
177
330
1F
100
AcDbEntity
  8
1
 62
     1
100
AcDbCircle
 10
343.1745670772693
 20
190.060472741412
 30
0.0
 40
10.4
100
AcDbArc
 50
126.0318800000167
 51
173.9681282999967
  0
ARC
  5
178
330
1F
100
AcDbEntity
  8
1
 62
     1
100
AcDbCircle
 10
332.7745670772697
 20
190.060472741412
 30
0.0
 40
10.4
100
AcDbArc
 50
6.031878399999522
 51
53.96812160000582
  0
ARC
  5
179
330
1F
100
AcDbEntity
  8
1
 62
     1
100
AcDbCircle
 10
343.1745670772693
 20
190.060472741412
 30
0.0
 40
10.4
100
AcDbArc
 50
119.9913563000009
 51
120.0000032999959
  0
ARC
  5
17A
330
1F
100
AcDbEntity
  8
1
 62
     1
100
AcDbCircle
 10
365.1919841092699
 20
191.4027957494122
 30
0.0
 40
1.56
100
AcDbArc
 50
293.9681180000054
 51
6.031878399999522
  0
ARC
  5
17B
330
1F
100
AcDbEntity
  8
1
 62
     1
100
AcDbCircle
 10
358.0098649572696
 20
191.4027957494122
 30
0.0
 40
1.56
100
AcDbArc
 50
173.9681282999967
 51
246.0318832999965
  0
ARC
  5
17C
330
1F
100
AcDbEntity
  8
1
 62
     1
100
AcDbCircle
 10
361.6009245332698
 20
199.4805374214122
 30
0.0
 40
10.4
100
AcDbArc
 50
246.0318832999965
 51
293.9681180000054
  0
ARC
  5
17D
330
1F
100
AcDbEntity
  8
1
 62
     1
100
AcDbCircle
 10
361.6009245332698
 20
197.6226895334121
 30
0.0
 40
1.56
100
AcDbArc
 50
53.96812160000582
 51
126.0318800000167
  0
ARC
  5
17E
330
1F
100
AcDbEntity
  8
1
 62
     1
100
AcDbCircle
 10
366.8009245332701
 20
190.4738639014119
 30
0.0
 40
10.4
100
AcDbArc
 50
126.0318800000167
 51
173.9681282999967
  0
ARC
  5
17F
330
1F
100
AcDbEntity
  8
1
 62
     1
100
AcDbCircle
 10
356.40092453327
 20
190.4738639014119
 30
0.0
 40
10.4
100
AcDbArc
 50
6.031878399999522
 51
53.96812160000582
  0
ARC
  5
180
330
1F
100
AcDbEntity
  8
1
 62
     1
100
AcDbCircle
 10
366.8009245332701
 20
190.4738639014119
 30
0.0
 40
10.4
100
AcDbArc
 50
119.9913563000009
 51
120.0000032999959
  0
ARC
  5
181
330
1F
100
AcDbEntity
  8
1
 62
     1
100
AcDbCircle
 10
388.3656266532694
 20
190.989404589412
 30
0.0
 40
1.56
100
AcDbArc
 50
293.9681180000054
 51
6.031878399999522
  0
ARC
  5
182
330
1F
100
AcDbEntity
  8
1
 62
     1
100
AcDbCircle
 10
381.1835075012695
 20
190.989404589412
 30
0.0
 40
1.56
100
AcDbArc
 50
173.9681282999967
 51
246.0318832999965
  0
ARC
  5
183
330
1F
100
AcDbEntity
  8
1
 62
     1
100
AcDbCircle
 10
384.7745670772697
 20
199.0671542694119
 30
0.0
 40
10.4
100
AcDbArc
 50
246.0318832999965
 51
293.9681180000054
  0
ARC
  5
184
330
1F
100
AcDbEntity
  8
1
 62
     1
100
AcDbCircle
 10
384.7745670772697
 20
197.209306381412
 30
0.0
 40
1.56
100
AcDbArc
 50
53.96812160000582
 51
126.0318800000167
  0
ARC
  5
185
330
1F
100
AcDbEntity
  8
1
 62
     1
100
AcDbCircle
 10
389.9745670772695
 20
190.060472741412
 30
0.0
 40
10.4
100
AcDbArc
 50
126.0318800000167
 51
173.9681282999967
  0
ARC
  5
186
330
1F
100
AcDbEntity
  8
1
 62
     1
100
AcDbCircle
 10
379.5745670772694
 20
190.060472741412
 30
0.0
 40
10.4
100
AcDbArc
 50
6.031878399999522
 51
53.96812160000582
  0
ARC
  5
187
330
1F
100
AcDbEntity
  8
1
 62
     1
100
AcDbCircle
 10
389.9745670772695
 20
190.060472741412
 30
0.0
 40
10.4
100
AcDbArc
 50
119.9913563000009
 51
120.0000032999959
  0
ARC
  5
188
330
1F
100
AcDbEntity
  8
1
 62
     1
100
AcDbCircle
 10
412.1212541332693
 20
191.6608419014121
 30
0.0
 40
1.56
100
AcDbArc
 50
293.9681180000054
 51
6.031878399999522
  0
ARC
  5
189
330
1F
100
AcDbEntity
  8
1
 62
     1
100
AcDbCircle
 10
404.9391349812695
 20
191.6608419014121
 30
0.0
 40
1.56
100
AcDbArc
 50
173.9681282999967
 51
246.0318832999965
  0
ARC
  5
18A
330
1F
100
AcDbEntity
  8
1
 62
     1
100
AcDbCircle
 10
408.5301945572695
 20
199.7385855494121
 30
0.0
 40
10.4
100
AcDbArc
 50
246.0318832999965
 51
293.9681180000054
  0
ARC
  5
18B
330
1F
100
AcDbEntity
  8
1
 62
     1
100
AcDbCircle
 10
408.5301945572695
 20
197.880737661412
 30
0.0
 40
1.56
100
AcDbArc
 50
53.96812160000582
 51
126.0318800000167
  0
ARC
  5
18C
330
1F
100
AcDbEntity
  8
1
 62
     1
100
AcDbCircle
 10
413.7301945572694
 20
190.731909949412
 30
0.0
 40
10.4
100
AcDbArc
 50
126.0318800000167
 51
173.9681282999967
  0
ARC
  5
18D
330
1F
100
AcDbEntity
  8
1
 62
     1
100
AcDbCircle
 10
403.3301945572693
 20
190.731909949412
 30
0.0
 40
10.4
100
AcDbArc
 50
6.031878399999522
 51
53.96812160000582
  0
ARC
  5
18E
330
1F
100
AcDbEntity
  8
1
 62
     1
100
AcDbCircle
 10
413.7301945572694
 20
190.731909949412
 30
0.0
 40
10.4
100
AcDbArc
 50
119.9913563000009
 51
120.0000032999959
  0
LINE
  5
18F
330
1F
100
AcDbEntity
  8
1
 62
     1
100
AcDbLine
 10
44.38358346926952
 20
183.8831935814121
 30
0.0
 11
44.38358346926952
 21
204.683191501412
 31
0.0
  0
LINE
  5
190
102
{ACAD_REACTORS
330
1F9
102
}
330
1F
100
AcDbEntity
  8
1
 62
     1
100
AcDbLine
 10
44.38358346926952
 20
204.683191501412
 30
0.0
 11
418.7835954292699
 21
204.683191501412
 31
0.0
  0
LINE
  5
191
102
{ACAD_REACTORS
330
1F9
102
}
330
1F
100
AcDbEntity
  8
1
 62
     1
100
AcDbLine
 10
418.7835954292699
 20
204.683191501412
 30
0.0
 11
418.7835954292699
 21
183.8831935814121
 31
0.0
  0
LINE
  5
192
330
1F
100
AcDbEntity
  8
1
 62
     1
100
AcDbLine
 10
418.7835954292699
 20
183.8831935814121
 30
0.0
 11
44.38358346926952
 21
183.8831935814121
 31
0.0
  0
ARC
  5
193
330
1F
100
AcDbEntity
  8
1
 62
     1
100
AcDbCircle
 10
107.7362754692694
 20
191.2968612454122
 30
0.0
 40
1.56
100
AcDbArc
 50
293.9681180000054
 51
6.031878399999522
  0
ARC
  5
194
330
1F
100
AcDbEntity
  8
1
 62
     1
100
AcDbCircle
 10
100.5541563172696
 20
191.2968612454122
 30
0.0
 40
1.56
100
AcDbArc
 50
173.9681282999967
 51
246.0318832999965
  0
ARC
  5
195
330
1F
100
AcDbEntity
  8
1
 62
     1
100
AcDbCircle
 10
104.1452158932697
 20
199.374603021412
 30
0.0
 40
10.4
100
AcDbArc
 50
246.0318832999965
 51
293.9681180000054
  0
ARC
  5
196
330
1F
100
AcDbEntity
  8
1
 62
     1
100
AcDbCircle
 10
104.1452158932697
 20
197.516755133412
 30
0.0
 40
1.56
100
AcDbArc
 50
53.96812160000582
 51
126.0318800000167
  0
ARC
  5
197
330
1F
100
AcDbEntity
  8
1
 62
     1
100
AcDbCircle
 10
109.3452158932696
 20
190.3679293974121
 30
0.0
 40
10.4
100
AcDbArc
 50
126.0318800000167
 51
173.9681282999967
  0
ARC
  5
198
330
1F
100
AcDbEntity
  8
1
 62
     1
100
AcDbCircle
 10
98.94521589326997
 20
190.3679293974121
 30
0.0
 40
10.4
100
AcDbArc
 50
6.031878399999522
 51
53.96812160000582
  0
ARC
  5
199
330
1F
100
AcDbEntity
  8
1
 62
     1
100
AcDbCircle
 10
109.3452158932696
 20
190.3679293974121
 30
0.0
 40
10.4
100
AcDbArc
 50
119.9913563000009
 51
120.0000032999959
  0
ARC
  5
19A
330
1F
100
AcDbEntity
  8
1
 62
     1
100
AcDbCircle
 10
84.16563455726963
 20
190.989404589412
 30
0.0
 40
1.56
100
AcDbArc
 50
293.9681180000054
 51
6.031878399999522
  0
ARC
  5
19B
330
1F
100
AcDbEntity
  8
1
 62
     1
100
AcDbCircle
 10
76.98351540526982
 20
190.989404589412
 30
0.0
 40
1.56
100
AcDbArc
 50
173.9681282999967
 51
246.0318832999965
  0
ARC
  5
19C
330
1F
100
AcDbEntity
  8
1
 62
     1
100
AcDbCircle
 10
80.5745749812695
 20
199.0671463654121
 30
0.0
 40
10.4
100
AcDbArc
 50
246.0318832999965
 51
293.9681180000054
  0
ARC
  5
19D
330
1F
100
AcDbEntity
  8
1
 62
     1
100
AcDbCircle
 10
80.5745749812695
 20
197.2092983734121
 30
0.0
 40
1.56
100
AcDbArc
 50
53.96812160000582
 51
126.0318800000167
  0
ARC
  5
19E
330
1F
100
AcDbEntity
  8
1
 62
     1
100
AcDbCircle
 10
85.77457498126978
 20
190.060472741412
 30
0.0
 40
10.4
100
AcDbArc
 50
126.0318800000167
 51
173.9681282999967
  0
ARC
  5
19F
330
1F
100
AcDbEntity
  8
1
 62
     1
100
AcDbCircle
 10
75.37457498126968
 20
190.060472741412
 30
0.0
 40
10.4
100
AcDbArc
 50
6.031878399999522
 51
53.96812160000582
  0
ARC
  5
1A0
330
1F
100
AcDbEntity
  8
1
 62
     1
100
AcDbCircle
 10
85.77457498126978
 20
190.060472741412
 30
0.0
 40
10.4
100
AcDbArc
 50
119.9913563000009
 51
120.0000032999959
  0
ARC
  5
1A1
330
1F
100
AcDbEntity
  8
1
 62
     1
100
AcDbCircle
 10
130.9656345572698
 20
190.989404589412
 30
0.0
 40
1.56
100
AcDbArc
 50
293.9681180000054
 51
6.031878399999522
  0
ARC
  5
1A2
330
1F
100
AcDbEntity
  8
1
 62
     1
100
AcDbCircle
 10
123.7835234132694
 20
190.989404589412
 30
0.0
 40
1.56
100
AcDbArc
 50
173.9681282999967
 51
246.0318832999965
  0
ARC
  5
1A3
330
1F
100
AcDbEntity
  8
1
 62
     1
100
AcDbCircle
 10
127.3745749812697
 20
199.0671463654121
 30
0.0
 40
10.4
100
AcDbArc
 50
246.0318832999965
 51
293.9681180000054
  0
ARC
  5
1A4
330
1F
100
AcDbEntity
  8
1
 62
     1
100
AcDbCircle
 10
127.3745749812697
 20
197.2092983734121
 30
0.0
 40
1.56
100
AcDbArc
 50
53.96812160000582
 51
126.0318800000167
  0
ARC
  5
1A5
330
1F
100
AcDbEntity
  8
1
 62
     1
100
AcDbCircle
 10
132.5745749812695
 20
190.060472741412
 30
0.0
 40
10.4
100
AcDbArc
 50
126.0318800000167
 51
173.9681282999967
  0
ARC
  5
1A6
330
1F
100
AcDbEntity
  8
1
 62
     1
100
AcDbCircle
 10
122.1745829892697
 20
190.060472741412
 30
0.0
 40
10.4
100
AcDbArc
 50
6.031878399999522
 51
53.96812160000582
  0
ARC
  5
1A7
330
1F
100
AcDbEntity
  8
1
 62
     1
100
AcDbCircle
 10
132.5745749812695
 20
190.060472741412
 30
0.0
 40
10.4
100
AcDbArc
 50
119.9913563000009
 51
120.0000032999959
  0
ARC
  5
1A8
330
1F
100
AcDbEntity
  8
1
 62
     1
100
AcDbCircle
 10
154.3656504692694
 20
190.989404589412
 30
0.0
 40
1.56
100
AcDbArc
 50
293.9681180000054
 51
6.031878399999522
  0
ARC
  5
1A9
330
1F
100
AcDbEntity
  8
1
 62
     1
100
AcDbCircle
 10
147.1835313172696
 20
190.989404589412
 30
0.0
 40
1.56
100
AcDbArc
 50
173.9681282999967
 51
246.0318832999965
  0
ARC
  5
1AA
330
1F
100
AcDbEntity
  8
1
 62
     1
100
AcDbCircle
 10
150.7745908932697
 20
199.0671463654121
 30
0.0
 40
10.4
100
AcDbArc
 50
246.0318832999965
 51
293.9681180000054
  0
ARC
  5
1AB
330
1F
100
AcDbEntity
  8
1
 62
     1
100
AcDbCircle
 10
150.7745908932697
 20
197.2092983734121
 30
0.0
 40
1.56
100
AcDbArc
 50
53.96812160000582
 51
126.0318800000167
  0
ARC
  5
1AC
330
1F
100
AcDbEntity
  8
1
 62
     1
100
AcDbCircle
 10
155.9745670772695
 20
190.060472741412
 30
0.0
 40
10.4
100
AcDbArc
 50
126.0318800000167
 51
173.9681282999967
  0
ARC
  5
1AD
330
1F
100
AcDbEntity
  8
1
 62
     1
100
AcDbCircle
 10
145.5745908932699
 20
190.060472741412
 30
0.0
 40
10.4
100
AcDbArc
 50
6.031878399999522
 51
53.96812160000582
  0
ARC
  5
1AE
330
1F
100
AcDbEntity
  8
1
 62
     1
100
AcDbCircle
 10
155.9745670772695
 20
190.060472741412
 30
0.0
 40
10.4
100
AcDbArc
 50
119.9913563000009
 51
120.0000032999959
  0
ARC
  5
1AF
330
1F
100
AcDbEntity
  8
1
 62
     1
100
AcDbCircle
 10
201.2052201812694
 20
191.0585782134121
 30
0.0
 40
1.56
100
AcDbArc
 50
293.9681180000054
 51
6.031878399999522
  0
ARC
  5
1B0
330
1F
100
AcDbEntity
  8
1
 62
     1
100
AcDbCircle
 10
194.0231010292696
 20
191.0585782134121
 30
0.0
 40
1.56
100
AcDbArc
 50
173.9681282999967
 51
246.0318832999965
  0
ARC
  5
1B1
330
1F
100
AcDbEntity
  8
1
 62
     1
100
AcDbCircle
 10
197.6141606052692
 20
199.1363238374122
 30
0.0
 40
10.4
100
AcDbArc
 50
246.0318832999965
 51
293.9681180000054
  0
ARC
  5
1B2
330
1F
100
AcDbEntity
  8
1
 62
     1
100
AcDbCircle
 10
197.6141606052692
 20
197.278475949412
 30
0.0
 40
1.56
100
AcDbArc
 50
53.96812160000582
 51
126.0318800000167
  0
ARC
  5
1B3
330
1F
100
AcDbEntity
  8
1
 62
     1
100
AcDbCircle
 10
202.8141606052695
 20
190.1296463654121
 30
0.0
 40
10.4
100
AcDbArc
 50
126.0318800000167
 51
173.9681282999967
  0
ARC
  5
1B4
330
1F
100
AcDbEntity
  8
1
 62
     1
100
AcDbCircle
 10
192.4141606052694
 20
190.1296463654121
 30
0.0
 40
10.4
100
AcDbArc
 50
6.031878399999522
 51
53.96812160000582
  0
ARC
  5
1B5
330
1F
100
AcDbEntity
  8
1
 62
     1
100
AcDbCircle
 10
202.8141606052695
 20
190.1296463654121
 30
0.0
 40
10.4
100
AcDbArc
 50
119.9913563000009
 51
120.0000032999959
  0
ARC
  5
1B6
330
1F
100
AcDbEntity
  8
1
 62
     1
100
AcDbCircle
 10
224.8859134772697
 20
191.588520197412
 30
0.0
 40
1.56
100
AcDbArc
 50
293.9681180000054
 51
6.031878399999522
  0
ARC
  5
1B7
330
1F
100
AcDbEntity
  8
1
 62
     1
100
AcDbCircle
 10
217.7037943252694
 20
191.588520197412
 30
0.0
 40
1.56
100
AcDbArc
 50
173.9681282999967
 51
246.0318832999965
  0
ARC
  5
1B8
330
1F
100
AcDbEntity
  8
1
 62
     1
100
AcDbCircle
 10
221.2948539012696
 20
199.666261973412
 30
0.0
 40
10.4
100
AcDbArc
 50
246.0318832999965
 51
293.9681180000054
  0
ARC
  5
1B9
330
1F
100
AcDbEntity
  8
1
 62
     1
100
AcDbCircle
 10
221.2948539012696
 20
197.808413981412
 30
0.0
 40
1.56
100
AcDbArc
 50
53.96812160000582
 51
126.0318800000167
  0
ARC
  5
1BA
330
1F
100
AcDbEntity
  8
1
 62
     1
100
AcDbCircle
 10
226.4948539012694
 20
190.6595883494119
 30
0.0
 40
10.4
100
AcDbArc
 50
126.0318800000167
 51
173.9681282999967
  0
ARC
  5
1BB
330
1F
100
AcDbEntity
  8
1
 62
     1
100
AcDbCircle
 10
216.0948539012693
 20
190.6595883494119
 30
0.0
 40
10.4
100
AcDbArc
 50
6.031878399999522
 51
53.96812160000582
  0
ARC
  5
1BC
330
1F
100
AcDbEntity
  8
1
 62
     1
100
AcDbCircle
 10
226.4948539012694
 20
190.6595883494119
 30
0.0
 40
10.4
100
AcDbArc
 50
119.9913563000009
 51
120.0000032999959
  0
ARC
  5
1BD
330
1F
100
AcDbEntity
  8
1
 62
     1
100
AcDbCircle
 10
247.9656266532697
 20
190.989404589412
 30
0.0
 40
1.56
100
AcDbArc
 50
293.9681180000054
 51
6.031878399999522
  0
ARC
  5
1BE
330
1F
100
AcDbEntity
  8
1
 62
     1
100
AcDbCircle
 10
240.7835075012695
 20
190.989404589412
 30
0.0
 40
1.56
100
AcDbArc
 50
173.9681282999967
 51
246.0318832999965
  0
ARC
  5
1BF
330
1F
100
AcDbEntity
  8
1
 62
     1
100
AcDbCircle
 10
244.3745670772696
 20
199.0671463654121
 30
0.0
 40
10.4
100
AcDbArc
 50
246.0318832999965
 51
293.9681180000054
  0
ARC
  5
1C0
330
1F
100
AcDbEntity
  8
1
 62
     1
100
AcDbCircle
 10
244.3745670772696
 20
197.2092983734121
 30
0.0
 40
1.56
100
AcDbArc
 50
53.96812160000582
 51
126.0318800000167
  0
ARC
  5
1C1
330
1F
100
AcDbEntity
  8
1
 62
     1
100
AcDbCircle
 10
249.5745670772694
 20
190.060472741412
 30
0.0
 40
10.4
100
AcDbArc
 50
126.0318800000167
 51
173.9681282999967
  0
ARC
  5
1C2
330
1F
100
AcDbEntity
  8
1
 62
     1
100
AcDbCircle
 10
239.1745670772693
 20
190.060472741412
 30
0.0
 40
10.4
100
AcDbArc
 50
6.031878399999522
 51
53.96812160000582
  0
ARC
  5
1C3
330
1F
100
AcDbEntity
  8
1
 62
     1
100
AcDbCircle
 10
249.5745670772694
 20
190.060472741412
 30
0.0
 40
10.4
100
AcDbArc
 50
119.9913563000009
 51
120.0000032999959
  0
ARC
  5
1C4
330
1F
100
AcDbEntity
  8
1
 62
     1
100
AcDbCircle
 10
294.7656266532695
 20
190.989404589412
 30
0.0
 40
1.56
100
AcDbArc
 50
293.9681180000054
 51
6.031878399999522
  0
ARC
  5
1C5
330
1F
100
AcDbEntity
  8
1
 62
     1
100
AcDbCircle
 10
287.5835234132696
 20
190.989404589412
 30
0.0
 40
1.56
100
AcDbArc
 50
173.9681282999967
 51
246.0318832999965
  0
ARC
  5
1C6
330
1F
100
AcDbEntity
  8
1
 62
     1
100
AcDbCircle
 10
291.1745670772693
 20
199.0671542694119
 30
0.0
 40
10.4
100
AcDbArc
 50
246.0318832999965
 51
293.9681180000054
  0
ARC
  5
1C7
330
1F
100
AcDbEntity
  8
1
 62
     1
100
AcDbCircle
 10
291.1745670772693
 20
197.209306381412
 30
0.0
 40
1.56
100
AcDbArc
 50
53.96812160000582
 51
126.0318800000167
  0
ARC
  5
1C8
330
1F
100
AcDbEntity
  8
1
 62
     1
100
AcDbCircle
 10
296.3745670772696
 20
190.060472741412
 30
0.0
 40
10.4
100
AcDbArc
 50
126.0318800000167
 51
173.9681282999967
  0
ARC
  5
1C9
330
1F
100
AcDbEntity
  8
1
 62
     1
100
AcDbCircle
 10
285.9745829892695
 20
190.060472741412
 30
0.0
 40
10.4
100
AcDbArc
 50
6.031878399999522
 51
53.96812160000582
  0
ARC
  5
1CA
330
1F
100
AcDbEntity
  8
1
 62
     1
100
AcDbCircle
 10
296.3745670772696
 20
190.060472741412
 30
0.0
 40
10.4
100
AcDbArc
 50
119.9913563000009
 51
120.0000032999959
  0
ARC
  5
1CB
330
1F
100
AcDbEntity
  8
1
 62
     1
100
AcDbCircle
 10
271.41993087727
 20
191.0846195014121
 30
0.0
 40
1.56
100
AcDbArc
 50
293.9681180000054
 51
6.031878399999522
  0
ARC
  5
1CC
330
1F
100
AcDbEntity
  8
1
 62
     1
100
AcDbCircle
 10
264.2378117252697
 20
191.0846195014121
 30
0.0
 40
1.56
100
AcDbArc
 50
173.9681282999967
 51
246.0318832999965
  0
ARC
  5
1CD
330
1F
100
AcDbEntity
  8
1
 62
     1
100
AcDbCircle
 10
267.8288713012698
 20
199.1623611734121
 30
0.0
 40
10.4
100
AcDbArc
 50
246.0318832999965
 51
293.9681180000054
  0
ARC
  5
1CE
330
1F
100
AcDbEntity
  8
1
 62
     1
100
AcDbCircle
 10
267.8288713012698
 20
197.3045132854119
 30
0.0
 40
1.56
100
AcDbArc
 50
53.96812160000582
 51
126.0318800000167
  0
ARC
  5
1CF
330
1F
100
AcDbEntity
  8
1
 62
     1
100
AcDbCircle
 10
273.0288713012697
 20
190.155687549412
 30
0.0
 40
10.4
100
AcDbArc
 50
126.0318800000167
 51
173.9681282999967
  0
ARC
  5
1D0
330
1F
100
AcDbEntity
  8
1
 62
     1
100
AcDbCircle
 10
262.6288713012696
 20
190.155687549412
 30
0.0
 40
10.4
100
AcDbArc
 50
6.031878399999522
 51
53.96812160000582
  0
ARC
  5
1D1
330
1F
100
AcDbEntity
  8
1
 62
     1
100
AcDbCircle
 10
273.0288713012697
 20
190.155687549412
 30
0.0
 40
10.4
100
AcDbArc
 50
119.9913563000009
 51
120.0000032999959
  0
ARC
  5
1D2
330
1F
100
AcDbEntity
  8
1
 62
     1
100
AcDbCircle
 10
318.1656266532696
 20
190.989404589412
 30
0.0
 40
1.56
100
AcDbArc
 50
293.9681180000054
 51
6.031878399999522
  0
ARC
  5
1D3
330
1F
100
AcDbEntity
  8
1
 62
     1
100
AcDbCircle
 10
310.9835075012693
 20
190.989404589412
 30
0.0
 40
1.56
100
AcDbArc
 50
173.9681282999967
 51
246.0318832999965
  0
ARC
  5
1D4
330
1F
100
AcDbEntity
  8
1
 62
     1
100
AcDbCircle
 10
314.5745670772694
 20
199.0671503174119
 30
0.0
 40
10.4
100
AcDbArc
 50
246.0318832999965
 51
293.9681180000054
  0
ARC
  5
1D5
330
1F
100
AcDbEntity
  8
1
 62
     1
100
AcDbCircle
 10
314.5745670772694
 20
197.209302429412
 30
0.0
 40
1.56
100
AcDbArc
 50
53.96812160000582
 51
126.0318800000167
  0
ARC
  5
1D6
330
1F
100
AcDbEntity
  8
1
 62
     1
100
AcDbCircle
 10
319.7745670772697
 20
190.060472741412
 30
0.0
 40
10.4
100
AcDbArc
 50
126.0318800000167
 51
173.9681282999967
  0
ARC
  5
1D7
330
1F
100
AcDbEntity
  8
1
 62
     1
100
AcDbCircle
 10
309.3745670772696
 20
190.060472741412
 30
0.0
 40
10.4
100
AcDbArc
 50
6.031878399999522
 51
53.96812160000582
  0
ARC
  5
1D8
330
1F
100
AcDbEntity
  8
1
 62
     1
100
AcDbCircle
 10
319.7745670772697
 20
190.060472741412
 30
0.0
 40
10.4
100
AcDbArc
 50
119.9913563000009
 51
120.0000032999959
  0
ARC
  5
1D9
330
1F
100
AcDbEntity
  8
1
 62
     1
100
AcDbCircle
 10
60.76563455726954
 20
190.989404589412
 30
0.0
 40
1.56
100
AcDbArc
 50
293.9681180000054
 51
6.031878399999522
  0
ARC
  5
1DA
330
1F
100
AcDbEntity
  8
1
 62
     1
100
AcDbCircle
 10
53.58351342926972
 20
190.989404589412
 30
0.0
 40
1.56
100
AcDbArc
 50
173.9681282999967
 51
246.0318832999965
  0
ARC
  5
1DB
330
1F
100
AcDbEntity
  8
1
 62
     1
100
AcDbCircle
 10
57.17457498126987
 20
199.0671463654121
 30
0.0
 40
10.4
100
AcDbArc
 50
246.0318832999965
 51
293.9681180000054
  0
ARC
  5
1DC
330
1F
100
AcDbEntity
  8
1
 62
     1
100
AcDbCircle
 10
57.17457498126987
 20
197.2092983734121
 30
0.0
 40
1.56
100
AcDbArc
 50
53.96812160000582
 51
126.0318800000167
  0
ARC
  5
1DD
330
1F
100
AcDbEntity
  8
1
 62
     1
100
AcDbCircle
 10
62.37457498126969
 20
190.060472741412
 30
0.0
 40
10.4
100
AcDbArc
 50
126.0318800000167
 51
173.9681282999967
  0
ARC
  5
1DE
330
1F
100
AcDbEntity
  8
1
 62
     1
100
AcDbCircle
 10
51.97457300526957
 20
190.060472741412
 30
0.0
 40
10.4
100
AcDbArc
 50
6.031878399999522
 51
53.96812160000582
  0
ARC
  5
1DF
330
1F
100
AcDbEntity
  8
1
 62
     1
100
AcDbCircle
 10
62.37457498126969
 20
190.060472741412
 30
0.0
 40
10.4
100
AcDbArc
 50
119.9913563000009
 51
120.0000032999959
  0
DIMENSION
  5
1E1
102
{ACAD_XDICTIONARY
360
1EF
102
}
102
{ACAD_REACTORS
330
1F9
102
}
330
1F
100
AcDbEntity
  8
0
100
AcDbDimension
  2
*D2
 10
418.7835954292699
 20
251.741372343338
 30
0.0
 11
231.5835894492697
 21
253.8247056766713
 31
0.0
 70
    32
 71
     5
 42
374.4000119600005
  3
ISO-25
100
AcDbAlignedDimension
 13
44.38358346926952
 23
204.683191501412
 33
0.0
 14
418.7835954292699
 24
204.683191501412
 34
0.0
100
AcDbRotatedDimension
  0
ENDSEC
  0
SECTION
  2
OBJECTS
  0
DICTIONARY
  5
C
330
0
100
AcDbDictionary
281
     1
  3
ACAD_COLOR
350
6B
  3
ACAD_GROUP
350
D
  3
ACAD_LAYOUT
350
1A
  3
ACAD_MATERIAL
350
6A
  3
ACAD_MLINESTYLE
350
17
  3
ACAD_PLOTSETTINGS
350
19
  3
ACAD_PLOTSTYLENAME
350
E
  3
ACAD_TABLESTYLE
350
7E
  3
AcDbVariableDictionary
350
5E
  0
DICTIONARY
  5
1EF
330
1E1
100
AcDbDictionary
280
     1
281
     1
  3
ACAD_DIMASSOC
360
1F9
  0
DICTIONARY
  5
6B
102
{ACAD_REACTORS
330
C
102
}
330
C
100
AcDbDictionary
281
     1
  0
DICTIONARY
  5
D
102
{ACAD_REACTORS
330
C
102
}
330
C
100
AcDbDictionary
281
     1
  0
DICTIONARY
  5
1A
102
{ACAD_REACTORS
330
C
102
}
330
C
100
AcDbDictionary
281
     1
  3
Layout1
350
D3
  3
Layout2
350
D7
  3
Model
350
22
  0
DICTIONARY
  5
6A
102
{ACAD_REACTORS
330
C
102
}
330
C
100
AcDbDictionary
281
     1
  0
DICTIONARY
  5
17
102
{ACAD_REACTORS
330
C
102
}
330
C
100
AcDbDictionary
281
     1
  3
Standard
350
18
  0
DICTIONARY
  5
19
102
{ACAD_REACTORS
330
C
102
}
330
C
100
AcDbDictionary
281
     1
  0
ACDBDICTIONARYWDFLT
  5
E
102
{ACAD_REACTORS
330
C
102
}
330
C
100
AcDbDictionary
281
     1
  3
Normal
350
F
100
AcDbDictionaryWithDefault
340
F
  0
DICTIONARY
  5
7E
102
{ACAD_REACTORS
330
C
102
}
330
C
100
AcDbDictionary
281
     1
  3
Standard
350
7F
  0
DICTIONARY
  5
5E
102
{ACAD_REACTORS
330
C
102
}
330
C
100
AcDbDictionary
281
     1
  3
CTABLESTYLE
350
84
  3
DIMASSOC
350
5F
  3
HIDETEXT
350
63
  0
DIMASSOC
  5
1F9
102
{ACAD_REACTORS
330
1EF
102
}
330
1EF
100
AcDbDimAssoc
330
1E1
 90
        3
 70
     0
 71
     0
  1
AcDbOsnapPointRef
 72
    13
331
190
 73
     2
 91
        0
 40
0.0
 10
0.0
 20
0.0
 30
2.000000000000000E+50
 75
     0
  1
AcDbOsnapPointRef
 72
    13
331
191
 73
     2
 91
        0
 40
0.0
 10
0.0
 20
0.0
 30
2.000000000000000E+50
 75
     0
  0
LAYOUT
  5
D3
102
{ACAD_REACTORS
330
1A
102
}
330
1A
100
AcDbPlotSettings
  1

  2
C:\Documents and Settings\basas\Application Data\Autodesk\AutoCAD 2005\R16.1\enu\plotters\Default Windows System Printer.pc3
  4

  6

 40
0.0
 41
0.0
 42
0.0
 43
0.0
 44
0.0
 45
0.0
 46
0.0
 47
0.0
 48
0.0
 49
0.0
140
0.0
141
0.0
142
1.0
143
1.0
 70
   688
 72
     0
 73
     0
 74
     5
  7

 75
    16
147
1.0
 76
     0
 77
     2
 78
   300
148
0.0
149
0.0
100
AcDbLayout
  1
Layout1
 70
     1
 71
     1
 10
0.0
 20
0.0
 11
12.0
 21
9.0
 12
0.0
 22
0.0
 32
0.0
 14
0.0
 24
0.0
 34
0.0
 15
0.0
 25
0.0
 35
0.0
146
0.0
 13
0.0
 23
0.0
 33
0.0
 16
1.0
 26
0.0
 36
0.0
 17
0.0
 27
1.0
 37
0.0
 76
     0
330
D2
  0
LAYOUT
  5
D7
102
{ACAD_REACTORS
330
1A
102
}
330
1A
100
AcDbPlotSettings
  1

  2
C:\Documents and Settings\basas\Application Data\Autodesk\AutoCAD 2005\R16.1\enu\plotters\Default Windows System Printer.pc3
  4

  6

 40
0.0
 41
0.0
 42
0.0
 43
0.0
 44
0.0
 45
0.0
 46
0.0
 47
0.0
 48
0.0
 49
0.0
140
0.0
141
0.0
142
1.0
143
1.0
 70
   688
 72
     0
 73
     0
 74
     5
  7

 75
    16
147
1.0
 76
     0
 77
     2
 78
   300
148
0.0
149
0.0
100
AcDbLayout
  1
Layout2
 70
     1
 71
     2
 10
0.0
 20
0.0
 11
12.0
 21
9.0
 12
0.0
 22
0.0
 32
0.0
 14
0.0
 24
0.0
 34
0.0
 15
0.0
 25
0.0
 35
0.0
146
0.0
 13
0.0
 23
0.0
 33
0.0
 16
1.0
 26
0.0
 36
0.0
 17
0.0
 27
1.0
 37
0.0
 76
     0
330
D6
  0
LAYOUT
  5
22
102
{ACAD_REACTORS
330
1A
102
}
330
1A
100
AcDbPlotSettings
  1

  2
none_device
  4
ISO_A4_(210.00_x_297.00_MM)
  6

 40
7.5
 41
20.0
 42
7.5
 43
20.0
 44
210.0
 45
297.0
 46
11.54999923706054
 47
-13.65000009536743
 48
0.0
 49
0.0
140
0.0
141
0.0
142
1.0
143
8.704084754739808
 70
 11952
 72
     1
 73
     0
 74
     0
  7

 75
     0
147
0.1148885871608098
 76
     0
 77
     2
 78
   300
148
0.0
149
0.0
100
AcDbLayout
  1
Model
 70
     1
 71
     0
 10
0.0
 20
0.0
 11
12.0
 21
9.0
 12
0.0
 22
0.0
 32
0.0
 14
0.0
 24
0.0
 34
0.0
 15
0.0
 25
0.0
 35
0.0
146
0.0
 13
0.0
 23
0.0
 33
0.0
 16
1.0
 26
0.0
 36
0.0
 17
0.0
 27
1.0
 37
0.0
 76
     0
330
1F
1001
ACAD_PSEXT
1000
None
1000
None
1000
Not applicable
1000
The layout will not be plotted unless a new plotter configuration name is selected.
1070
     0
  0
MLINESTYLE
  5
18
102
{ACAD_REACTORS
330
17
102
}
330
17
100
AcDbMlineStyle
  2
STANDARD
 70
     0
  3

 62
   256
 51
90.0
 52
90.0
 71
     2
 49
0.5
 62
   256
  6
BYLAYER
 49
-0.5
 62
   256
  6
BYLAYER
  0
ACDBPLACEHOLDER
  5
F
102
{ACAD_REACTORS
330
E
102
}
330
E
  0
TABLESTYLE
  5
7F
102
{ACAD_REACTORS
330
7E
102
}
330
7E
100
AcDbTableStyle
  3
Standard
 70
     0
 71
     0
 40
1.5
 41
1.5
280
     0
281
     0
  7
Standard
140
4.5
170
     2
 62
     0
 63
     7
283
     0
274
    -2
284
     1
 64
     0
275
    -2
285
     1
 65
     0
276
    -2
286
     1
 66
     0
277
    -2
287
     1
 67
     0
278
    -2
288
     1
 68
     0
279
    -2
289
     1
 69
     0
  7
Standard
140
6.0
170
     5
 62
     0
 63
     7
283
     0
274
    -2
284
     1
 64
     0
275
    -2
285
     1
 65
     0
276
    -2
286
     1
 66
     0
277
    -2
287
     1
 67
     0
278
    -2
288
     1
 68
     0
279
    -2
289
     1
 69
     0
  7
Standard
140
4.5
170
     5
 62
     0
 63
     7
283
     0
274
    -2
284
     1
 64
     0
275
    -2
285
     1
 65
     0
276
    -2
286
     1
 66
     0
277
    -2
287
     1
 67
     0
278
    -2
288
     1
 68
     0
279
    -2
289
     1
 69
     0
  0
DICTIONARYVAR
  5
84
102
{ACAD_REACTORS
330
5E
102
}
330
5E
100
DictionaryVariables
280
     0
  1
STANDARD
  0
DICTIONARYVAR
  5
5F
102
{ACAD_REACTORS
330
5E
102
}
330
5E
100
DictionaryVariables
280
     0
  1
2
  0
DICTIONARYVAR
  5
63
102
{ACAD_REACTORS
330
5E
102
}
330
5E
100
DictionaryVariables
280
     0
  1
1
  0
ENDSEC
  0
EOF
