  0
SECTION
  2
HEADER
  9
$ACADVER
  1
AC1021
  9
$ACADMAINTVER
 70
     1
  9
$DWGCODEPAGE
  3
ANSI_1252
  9
$LASTSAVEDBY
  1
Paolo
  9
$INSBASE
 10
0.0
 20
0.0
 30
0.0
  9
$EXTMIN
 10
841.1250250239458
 20
-958.5474741038318
 30
0.0
  9
$EXTMAX
 10
9116.422029867532
 20
2166.468662079205
 30
0.0
  9
$LIMMIN
 10
0.0
 20
0.0
  9
$LIMMAX
 10
2.0
 20
1.0
  9
$ORTHOMODE
 70
     0
  9
$REGENMODE
 70
     1
  9
$FILLMODE
 70
     1
  9
$QTEXTMODE
 70
     0
  9
$MIRRTEXT
 70
     0
  9
$LTSCALE
 40
1.0
  9
$ATTMODE
 70
     1
  9
$TEXTSIZE
 40
50.0
  9
$TRACEWID
 40
1.0
  9
$TEXTSTYLE
  7
STANDARD
  9
$CLAYER
  8
0
  9
$CELTYPE
  6
CONTINUOUS
  9
$CECOLOR
 62
   256
  9
$CELTSCALE
 40
1.0
  9
$DISPSILH
 70
     0
  9
$DIMSCALE
 40
1.0
  9
$DIMASZ
 40
2.5
  9
$DIMEXO
 40
0.625
  9
$DIMDLI
 40
3.75
  9
$DIMRND
 40
100.0
  9
$DIMDLE
 40
0.0
  9
$DIMEXE
 40
1.25
  9
$DIMTP
 40
0.0
  9
$DIMTM
 40
0.0
  9
$DIMTXT
 40
2.5
  9
$DIMCEN
 40
2.5
  9
$DIMTSZ
 40
0.0
  9
$DIMTOL
 70
     0
  9
$DIMLIM
 70
     0
  9
$DIMTIH
 70
     0
  9
$DIMTOH
 70
     0
  9
$DIMSE1
 70
     0
  9
$DIMSE2
 70
     0
  9
$DIMTAD
 70
     1
  9
$DIMZIN
 70
     8
  9
$DIMBLK
  1

  9
$DIMASO
 70
     1
  9
$DIMSHO
 70
     1
  9
$DIMPOST
  1

  9
$DIMAPOST
  1

  9
$DIMALT
 70
     0
  9
$DIMALTD
 70
     3
  9
$DIMALTF
 40
0.03937007874016
  9
$DIMLFAC
 40
1.0
  9
$DIMTOFL
 70
     1
  9
$DIMTVP
 40
0.0
  9
$DIMTIX
 70
     0
  9
$DIMSOXD
 70
     0
  9
$DIMSAH
 70
     0
  9
$DIMBLK1
  1

  9
$DIMBLK2
  1

  9
$DIMSTYLE
  2
Copia di ISO-25
  9
$DIMCLRD
 70
     0
  9
$DIMCLRE
 70
     0
  9
$DIMCLRT
 70
     0
  9
$DIMTFAC
 40
1.0
  9
$DIMGAP
 40
5.625
  9
$DIMJUST
 70
     0
  9
$DIMSD1
 70
     0
  9
$DIMSD2
 70
     0
  9
$DIMTOLJ
 70
     1
  9
$DIMTZIN
 70
     8
  9
$DIMALTZ
 70
     8
  9
$DIMALTTZ
 70
     8
  9
$DIMUPT
 70
     0
  9
$DIMDEC
 70
     0
  9
$DIMTDEC
 70
     0
  9
$DIMALTU
 70
     2
  9
$DIMALTTD
 70
     3
  9
$DIMTXSTY
  7
STANDARD
  9
$DIMAUNIT
 70
     0
  9
$DIMADEC
 70
     0
  9
$DIMALTRND
 40
0.0
  9
$DIMAZIN
 70
     0
  9
$DIMDSEP
 70
    46
  9
$DIMATFIT
 70
     3
  9
$DIMFRAC
 70
     0
  9
$DIMLDRBLK
  1

  9
$DIMLUNIT
 70
     2
  9
$DIMLWD
 70
    -2
  9
$DIMLWE
 70
    -2
  9
$DIMTMOVE
 70
     2
  9
$DIMFXL
 40
1.0
  9
$DIMFXLON
 70
     0
  9
$DIMJOGANG
 40
0.7853981633974483
  9
$DIMTFILL
 70
     0
  9
$DIMTFILLCLR
 70
     0
  9
$DIMARCSYM
 70
     0
  9
$DIMLTYPE
  6

  9
$DIMLTEX1
  6

  9
$DIMLTEX2
  6

  9
$LUNITS
 70
     2
  9
$LUPREC
 70
     0
  9
$SKETCHINC
 40
1.0
  9
$FILLETRAD
 40
0.0
  9
$AUNITS
 70
     0
  9
$AUPREC
 70
     0
  9
$MENU
  1
.
  9
$ELEVATION
 40
0.0
  9
$PELEVATION
 40
0.0
  9
$THICKNESS
 40
0.0
  9
$LIMCHECK
 70
     0
  9
$CHAMFERA
 40
0.0
  9
$CHAMFERB
 40
0.0
  9
$CHAMFERC
 40
0.0
  9
$CHAMFERD
 40
0.0
  9
$SKPOLY
 70
     0
  9
$TDCREATE
 40
2455316.660349607
  9
$TDUCREATE
 40
2455316.577016273
  9
$TDUPDATE
 40
2455317.571567488
  9
$TDUUPDATE
 40
2455317.488234155
  9
$TDINDWG
 40
0.1869754630
  9
$TDUSRTIMER
 40
0.1869749190
  9
$USRTIMER
 70
     1
  9
$ANGBASE
 50
0.0
  9
$ANGDIR
 70
     0
  9
$PDMODE
 70
     0
  9
$PDSIZE
 40
0.0
  9
$PLINEWID
 40
0.0
  9
$SPLFRAME
 70
     0
  9
$SPLINETYPE
 70
     6
  9
$SPLINESEGS
 70
     8
  9
$HANDSEED
  5
5CC
  9
$SURFTAB1
 70
     6
  9
$SURFTAB2
 70
     6
  9
$SURFTYPE
 70
     6
  9
$SURFU
 70
     6
  9
$SURFV
 70
     6
  9
$UCSBASE
  2

  9
$UCSNAME
  2

  9
$UCSORG
 10
0.0
 20
0.0
 30
0.0
  9
$UCSXDIR
 10
1.0
 20
0.0
 30
0.0
  9
$UCSYDIR
 10
0.0
 20
1.0
 30
0.0
  9
$UCSORTHOREF
  2

  9
$UCSORTHOVIEW
 70
     0
  9
$UCSORGTOP
 10
0.0
 20
0.0
 30
0.0
  9
$UCSORGBOTTOM
 10
0.0
 20
0.0
 30
0.0
  9
$UCSORGLEFT
 10
0.0
 20
0.0
 30
0.0
  9
$UCSORGRIGHT
 10
0.0
 20
0.0
 30
0.0
  9
$UCSORGFRONT
 10
0.0
 20
0.0
 30
0.0
  9
$UCSORGBACK
 10
0.0
 20
0.0
 30
0.0
  9
$PUCSBASE
  2

  9
$PUCSNAME
  2

  9
$PUCSORG
 10
0.0
 20
0.0
 30
0.0
  9
$PUCSXDIR
 10
1.0
 20
0.0
 30
0.0
  9
$PUCSYDIR
 10
0.0
 20
1.0
 30
0.0
  9
$PUCSORTHOREF
  2

  9
$PUCSORTHOVIEW
 70
     0
  9
$PUCSORGTOP
 10
0.0
 20
0.0
 30
0.0
  9
$PUCSORGBOTTOM
 10
0.0
 20
0.0
 30
0.0
  9
$PUCSORGLEFT
 10
0.0
 20
0.0
 30
0.0
  9
$PUCSORGRIGHT
 10
0.0
 20
0.0
 30
0.0
  9
$PUCSORGFRONT
 10
0.0
 20
0.0
 30
0.0
  9
$PUCSORGBACK
 10
0.0
 20
0.0
 30
0.0
  9
$USERI1
 70
     0
  9
$USERI2
 70
     0
  9
$USERI3
 70
     0
  9
$USERI4
 70
     0
  9
$USERI5
 70
     0
  9
$USERR1
 40
0.0
  9
$USERR2
 40
0.0
  9
$USERR3
 40
0.0
  9
$USERR4
 40
0.0
  9
$USERR5
 40
0.0
  9
$WORLDVIEW
 70
     1
  9
$SHADEDGE
 70
     3
  9
$SHADEDIF
 70
    70
  9
$TILEMODE
 70
     1
  9
$MAXACTVP
 70
    64
  9
$PINSBASE
 10
0.0
 20
0.0
 30
0.0
  9
$PLIMCHECK
 70
     0
  9
$PEXTMIN
 10
0.0
 20
0.0
 30
0.0
  9
$PEXTMAX
 10
0.0
 20
0.0
 30
0.0
  9
$PLIMMIN
 10
0.0
 20
0.0
  9
$PLIMMAX
 10
12.0
 20
9.0
  9
$UNITMODE
 70
     0
  9
$VISRETAIN
 70
     1
  9
$PLINEGEN
 70
     0
  9
$PSLTSCALE
 70
     1
  9
$TREEDEPTH
 70
  3020
  9
$CMLSTYLE
  2
Standard
  9
$CMLJUST
 70
     0
  9
$CMLSCALE
 40
1.0
  9
$PROXYGRAPHICS
 70
     1
  9
$MEASUREMENT
 70
     0
  9
$CELWEIGHT
370
    -1
  9
$ENDCAPS
280
     0
  9
$JOINSTYLE
280
     0
  9
$LWDISPLAY
290
     0
  9
$INSUNITS
 70
     0
  9
$HYPERLINKBASE
  1

  9
$STYLESHEET
  1

  9
$XEDIT
290
     1
  9
$CEPSNTYPE
380
     0
  9
$PSTYLEMODE
290
     1
  9
$FINGERPRINTGUID
  2
{A4F55839-6F99-48A3-A4DD-A6535F5ABBCA}
  9
$VERSIONGUID
  2
{1D1CE618-EF0A-4E19-91C0-03A5FF37D235}
  9
$EXTNAMES
290
     1
  9
$PSVPSCALE
 40
0.0
  9
$OLESTARTUP
290
     0
  9
$SORTENTS
280
   127
  9
$INDEXCTL
280
     0
  9
$HIDETEXT
280
     0
  9
$XCLIPFRAME
290
     0
  9
$HALOGAP
280
     0
  9
$OBSCOLOR
 70
   257
  9
$OBSLTYPE
280
     0
  9
$INTERSECTIONDISPLAY
280
     0
  9
$INTERSECTIONCOLOR
 70
   257
  9
$DIMASSOC
280
     1
  9
$PROJECTNAME
  1

  9
$CAMERADISPLAY
290
     0
  9
$LENSLENGTH
 40
50.0
  9
$CAMERAHEIGHT
 40
0.0
  9
$STEPSPERSEC
 40
2.0
  9
$STEPSIZE
 40
6.0
  9
$3DDWFPREC
 40
2.0
  9
$PSOLWIDTH
 40
0.25
  9
$PSOLHEIGHT
 40
4.0
  9
$LOFTANG1
 40
1.570796326794896
  9
$LOFTANG2
 40
1.570796326794896
  9
$LOFTMAG1
 40
0.0
  9
$LOFTMAG2
 40
0.0
  9
$LOFTPARAM
 70
     7
  9
$LOFTNORMALS
280
     1
  9
$LATITUDE
 40
37.795
  9
$LONGITUDE
 40
-122.394
  9
$NORTHDIRECTION
 40
0.0
  9
$TIMEZONE
 70
 -8000
  9
$LIGHTGLYPHDISPLAY
280
     1
  9
$TILEMODELIGHTSYNCH
280
     1
  9
$CMATERIAL
347
1C5
  9
$SOLIDHIST
280
     1
  9
$SHOWHIST
280
     1
  9
$DWFFRAME
280
     2
  9
$DGNFRAME
280
     0
  9
$REALWORLDSCALE
290
     1
  9
$INTERFERECOLOR
 62
     1
  9
$INTERFEREOBJVS
345
1D2
  9
$INTERFEREVPVS
346
1CF
  9
$CSHADOW
280
     0
  9
$SHADOWPLANELOCATION
 40
0.0
  0
ENDSEC
  0
SECTION
  2
CLASSES
  0
CLASS
  1
ACDBDICTIONARYWDFLT
  2
AcDbDictionaryWithDefault
  3
ObjectDBX Classes
 90
        0
 91
        1
280
     0
281
     0
  0
CLASS
  1
MATERIAL
  2
AcDbMaterial
  3
ObjectDBX Classes
 90
     1024
 91
        3
280
     0
281
     0
  0
CLASS
  1
VISUALSTYLE
  2
AcDbVisualStyle
  3
ObjectDBX Classes
 90
     4095
 91
       16
280
     0
281
     0
  0
CLASS
  1
TABLESTYLE
  2
AcDbTableStyle
  3
ObjectDBX Classes
 90
     4095
 91
        1
280
     0
281
     0
  0
CLASS
  1
DICTIONARYVAR
  2
AcDbDictionaryVar
  3
ObjectDBX Classes
 90
        0
 91
        1
280
     0
281
     0
  0
CLASS
  1
SORTENTSTABLE
  2
AcDbSortentsTable
  3
ObjectDBX Classes
 90
        0
 91
        2
280
     0
281
     0
  0
ENDSEC
  0
SECTION
  2
TABLES
  0
TABLE
  2
VPORT
  5
1BC
330
0
100
AcDbSymbolTable
 70
     1
  0
VPORT
  5
1EE
330
1BC
100
AcDbSymbolTableRecord
100
AcDbViewportTableRecord
  2
*ACTIVE
 70
     0
 10
0.0
 20
0.0
 11
1.0
 21
1.0
 12
4914.375268819658
 22
50.74887198330589
 13
0.0
 23
0.0
 14
10.0
 24
10.0
 15
10.0
 25
10.0
 16
0.0
 26
0.0
 36
1.0
 17
0.0
 27
0.0
 37
0.0
 40
2192.848167807805
 41
2.493333333333333
 42
50.0
 43
0.0
 44
0.0
 50
0.0
 51
0.0
 71
     0
 72
  1000
 73
     1
 74
     3
 75
     0
 76
     1
 77
     0
 78
     0
281
     0
 65
     1
110
0.0
120
0.0
130
0.0
111
1.0
121
0.0
131
0.0
112
0.0
122
1.0
132
0.0
 79
     0
146
0.0
348
1CE
 60
     3
 61
     5
292
     1
282
     0
141
0.0
142
0.0
 63
   250
421
  3355443
  0
ENDTAB
  0
TABLE
  2
LTYPE
  5
1B9
330
0
100
AcDbSymbolTable
 70
     2
  0
LTYPE
  5
1DC
330
1B9
100
AcDbSymbolTableRecord
100
AcDbLinetypeTableRecord
  2
ByBlock
 70
     0
  3

 72
    65
 73
     0
 40
0.0
  0
LTYPE
  5
1DD
330
1B9
100
AcDbSymbolTableRecord
100
AcDbLinetypeTableRecord
  2
ByLayer
 70
     0
  3

 72
    65
 73
     0
 40
0.0
  0
LTYPE
  5
1DE
330
1B9
100
AcDbSymbolTableRecord
100
AcDbLinetypeTableRecord
  2
CONTINUOUS
 70
     0
  3
Solid line
 72
    65
 73
     0
 40
0.0
  0
LTYPE
  5
1EF
330
1B9
100
AcDbSymbolTableRecord
100
AcDbLinetypeTableRecord
  2
ACAD_ISO02W100
 70
     0
  3
Linea ISO __ __ __ __ __ __ __ __ __ __ __ __ __
 72
    65
 73
     2
 40
15.0
 49
12.0
 74
     0
 49
-3.0
 74
     0
  0
ENDTAB
  0
TABLE
  2
LAYER
  5
1B6
330
0
100
AcDbSymbolTable
 70
     2
  0
LAYER
  5
1D9
330
1B6
100
AcDbSymbolTableRecord
100
AcDbLayerTableRecord
  2
0
 70
     0
 62
     7
  6
CONTINUOUS
370
    -3
390
1C3
347
1C7
  0
LAYER
  5
2ED
330
1B6
100
AcDbSymbolTableRecord
100
AcDbLayerTableRecord
  2
Defpoints
 70
     0
 62
     7
  6
CONTINUOUS
290
     0
370
    -3
390
1C3
347
1C7
  0
ENDTAB
  0
TABLE
  2
STYLE
  5
1B7
330
0
100
AcDbSymbolTable
 70
     2
  0
STYLE
  5
1DA
330
1B7
100
AcDbSymbolTableRecord
100
AcDbTextStyleTableRecord
  2
STANDARD
 70
     0
 40
50.0
 41
1.0
 50
0.0
 71
     0
 42
50.0
  3
txt.shx
  4

  0
STYLE
  5
1F0
330
1B7
100
AcDbSymbolTableRecord
100
AcDbTextStyleTableRecord
  2

 70
     1
 40
0.0
 41
1.0
 50
0.0
 71
     0
 42
2.5
  3
ltypeshp.shx
  4

  0
ENDTAB
  0
TABLE
  2
VIEW
  5
1BA
330
0
100
AcDbSymbolTable
 70
     0
  0
ENDTAB
  0
TABLE
  2
UCS
  5
1BB
330
0
100
AcDbSymbolTable
 70
     0
  0
ENDTAB
  0
TABLE
  2
APPID
  5
1BD
330
0
100
AcDbSymbolTable
 70
     3
  0
APPID
  5
1DB
330
1BD
100
AcDbSymbolTableRecord
100
AcDbRegAppTableRecord
  2
ACAD
 70
     0
  0
APPID
  5
1F1
330
1BD
100
AcDbSymbolTableRecord
100
AcDbRegAppTableRecord
  2
ACAD_PSEXT
 70
     0
  0
APPID
  5
1F2
330
1BD
100
AcDbSymbolTableRecord
100
AcDbRegAppTableRecord
  2
ACAD_EXEMPT_FROM_CAD_STANDARDS
 70
     0
  0
ENDTAB
  0
TABLE
  2
DIMSTYLE
  5
1BE
330
0
100
AcDbSymbolTable
 70
     2
100
AcDbDimStyleTable
 71
     2
340
447
340
1F3
  0
DIMSTYLE
105
1F3
330
1BE
100
AcDbSymbolTableRecord
100
AcDbDimStyleTableRecord
  2
ISO-25
 70
     0
 41
2.5
 42
0.625
 43
3.75
 44
1.25
 73
     0
 74
     0
 77
     1
 78
     8
140
2.5
141
2.5
143
0.03937007874016
147
0.625
171
     3
172
     1
274
     3
279
     2
284
     8
285
     8
286
     8
340
1DA
  0
DIMSTYLE
105
447
102
{ACAD_REACTORS
330
455
330
462
330
46F
330
47C
330
489
330
496
330
4EF
330
4FC
330
509
330
516
330
523
102
}
330
1BE
100
AcDbSymbolTableRecord
100
AcDbDimStyleTableRecord
  2
Copia di ISO-25
 70
     0
 41
2.5
 42
0.625
 43
3.75
 44
1.25
 45
100.0
 73
     0
 74
     0
 77
     1
 78
     8
140
2.5
141
2.5
143
0.03937007874016
147
5.625
171
     3
172
     1
271
     0
272
     0
274
     3
279
     2
284
     8
285
     8
286
     8
340
1DA
  0
ENDTAB
  0
TABLE
  2
BLOCK_RECORD
  5
1B5
330
0
100
AcDbSymbolTable
 70
    29
  0
BLOCK_RECORD
  5
1EA
102
{ACAD_XDICTIONARY
360
3EF
102
}
330
1B5
100
AcDbSymbolTableRecord
100
AcDbBlockTableRecord
  2
*Model_Space
340
1ED
 70
     0
280
     1
281
     0
  0
BLOCK_RECORD
  5
1E6
330
1B5
100
AcDbSymbolTableRecord
100
AcDbBlockTableRecord
  2
*Paper_Space
340
1E9
 70
     0
280
     1
281
     0
  0
BLOCK_RECORD
  5
1F6
330
1B5
100
AcDbSymbolTableRecord
100
AcDbBlockTableRecord
  2
$MODEL_SPACE
340
0
 70
     0
280
     1
281
     0
  0
BLOCK_RECORD
  5
1F8
330
1B5
100
AcDbSymbolTableRecord
100
AcDbBlockTableRecord
  2
$PAPER_SPACE
340
0
 70
     0
280
     1
281
     0
  0
BLOCK_RECORD
  5
2EE
330
1B5
100
AcDbSymbolTableRecord
100
AcDbBlockTableRecord
  2
*D2
340
0
 70
     0
280
     1
281
     0
  0
BLOCK_RECORD
  5
2FB
330
1B5
100
AcDbSymbolTableRecord
100
AcDbBlockTableRecord
  2
*D3
340
0
 70
     0
280
     1
281
     0
  0
BLOCK_RECORD
  5
308
330
1B5
100
AcDbSymbolTableRecord
100
AcDbBlockTableRecord
  2
*D4
340
0
 70
     0
280
     1
281
     0
  0
BLOCK_RECORD
  5
315
330
1B5
100
AcDbSymbolTableRecord
100
AcDbBlockTableRecord
  2
*D5
340
0
 70
     0
280
     1
281
     0
  0
BLOCK_RECORD
  5
322
330
1B5
100
AcDbSymbolTableRecord
100
AcDbBlockTableRecord
  2
*D6
340
0
 70
     0
280
     1
281
     0
  0
BLOCK_RECORD
  5
32F
330
1B5
100
AcDbSymbolTableRecord
100
AcDbBlockTableRecord
  2
*D7
340
0
 70
     0
280
     1
281
     0
  0
BLOCK_RECORD
  5
33C
330
1B5
100
AcDbSymbolTableRecord
100
AcDbBlockTableRecord
  2
*D8
340
0
 70
     0
280
     1
281
     0
  0
BLOCK_RECORD
  5
349
330
1B5
100
AcDbSymbolTableRecord
100
AcDbBlockTableRecord
  2
*D9
340
0
 70
     0
280
     1
281
     0
  0
BLOCK_RECORD
  5
356
330
1B5
100
AcDbSymbolTableRecord
100
AcDbBlockTableRecord
  2
*D10
340
0
 70
     0
280
     1
281
     0
  0
BLOCK_RECORD
  5
363
330
1B5
100
AcDbSymbolTableRecord
100
AcDbBlockTableRecord
  2
*D11
340
0
 70
     0
280
     1
281
     0
  0
BLOCK_RECORD
  5
370
330
1B5
100
AcDbSymbolTableRecord
100
AcDbBlockTableRecord
  2
*D12
340
0
 70
     0
280
     1
281
     0
  0
BLOCK_RECORD
  5
37D
330
1B5
100
AcDbSymbolTableRecord
100
AcDbBlockTableRecord
  2
*D13
340
0
 70
     0
280
     1
281
     0
  0
BLOCK_RECORD
  5
420
330
1B5
100
AcDbSymbolTableRecord
100
AcDbBlockTableRecord
  2
*D14
340
0
 70
     0
280
     1
281
     0
  0
BLOCK_RECORD
  5
42D
330
1B5
100
AcDbSymbolTableRecord
100
AcDbBlockTableRecord
  2
*D15
340
0
 70
     0
280
     1
281
     0
  0
BLOCK_RECORD
  5
456
330
1B5
100
AcDbSymbolTableRecord
100
AcDbBlockTableRecord
  2
*D16
340
0
 70
     0
280
     1
281
     0
  0
BLOCK_RECORD
  5
463
330
1B5
100
AcDbSymbolTableRecord
100
AcDbBlockTableRecord
  2
*D17
340
0
 70
     0
280
     1
281
     0
  0
BLOCK_RECORD
  5
470
330
1B5
100
AcDbSymbolTableRecord
100
AcDbBlockTableRecord
  2
*D18
340
0
 70
     0
280
     1
281
     0
  0
BLOCK_RECORD
  5
47D
330
1B5
100
AcDbSymbolTableRecord
100
AcDbBlockTableRecord
  2
*D19
340
0
 70
     0
280
     1
281
     0
  0
BLOCK_RECORD
  5
48A
330
1B5
100
AcDbSymbolTableRecord
100
AcDbBlockTableRecord
  2
*D20
340
0
 70
     0
280
     1
281
     0
  0
BLOCK_RECORD
  5
497
330
1B5
100
AcDbSymbolTableRecord
100
AcDbBlockTableRecord
  2
*D21
340
0
 70
     0
280
     1
281
     0
  0
BLOCK_RECORD
  5
4A4
330
1B5
100
AcDbSymbolTableRecord
100
AcDbBlockTableRecord
  2
*D22
340
0
 70
     0
280
     1
281
     0
  0
BLOCK_RECORD
  5
4F0
330
1B5
100
AcDbSymbolTableRecord
100
AcDbBlockTableRecord
  2
*D23
340
0
 70
     0
280
     1
281
     0
  0
BLOCK_RECORD
  5
4FD
330
1B5
100
AcDbSymbolTableRecord
100
AcDbBlockTableRecord
  2
*D24
340
0
 70
     0
280
     1
281
     0
  0
BLOCK_RECORD
  5
50A
330
1B5
100
AcDbSymbolTableRecord
100
AcDbBlockTableRecord
  2
*D25
340
0
 70
     0
280
     1
281
     0
  0
BLOCK_RECORD
  5
517
330
1B5
100
AcDbSymbolTableRecord
100
AcDbBlockTableRecord
  2
*D26
340
0
 70
     0
280
     1
281
     0
  0
BLOCK_RECORD
  5
524
330
1B5
100
AcDbSymbolTableRecord
100
AcDbBlockTableRecord
  2
*D27
340
0
 70
     0
280
     1
281
     0
  0
ENDTAB
  0
ENDSEC
  0
SECTION
  2
BLOCKS
  0
BLOCK
  5
1EB
330
1EA
100
AcDbEntity
  8
0
100
AcDbBlockBegin
  2
*Model_Space
 70
     0
 10
0.0
 20
0.0
 30
0.0
  3
*Model_Space
  1

  0
ENDBLK
  5
1EC
330
1EA
100
AcDbEntity
  8
0
100
AcDbBlockEnd
  0
BLOCK
  5
1E7
330
1E6
100
AcDbEntity
 67
     1
  8
0
100
AcDbBlockBegin
  2
*Paper_Space
 70
     0
 10
0.0
 20
0.0
 30
0.0
  3
*Paper_Space
  1

  0
ENDBLK
  5
1E8
330
1E6
100
AcDbEntity
 67
     1
  8
0
100
AcDbBlockEnd
  0
BLOCK
  5
1F7
330
1F6
100
AcDbEntity
  8
0
100
AcDbBlockBegin
  2
$MODEL_SPACE
 70
     0
 10
0.0
 20
0.0
 30
0.0
  3
$MODEL_SPACE
  1

  0
ENDBLK
  5
21
330
1F6
100
AcDbEntity
  8
0
100
AcDbBlockEnd
  0
BLOCK
  5
1F9
330
1F8
100
AcDbEntity
  8
0
100
AcDbBlockBegin
  2
$PAPER_SPACE
 70
     0
 10
0.0
 20
0.0
 30
0.0
  3
$PAPER_SPACE
  1

  0
ENDBLK
  5
D5
330
1F8
100
AcDbEntity
  8
0
100
AcDbBlockEnd
  0
BLOCK
  5
2F8
330
2EE
100
AcDbEntity
  8
0
100
AcDbBlockBegin
  2
*D2
 70
     1
 10
0.0
 20
0.0
 30
0.0
  3
*D2
  1

  0
LINE
  5
2EF
330
2EE
100
AcDbEntity
  8
0
  6
Continuous
 62
     0
370
    -2
100
AcDbLine
 10
1172.737601600194
 20
548.0529543723933
 30
0.0
 11
1172.737601600194
 21
493.9815833968241
 31
0.0
  0
LINE
  5
2F0
330
2EE
100
AcDbEntity
  8
0
  6
Continuous
 62
     0
370
    -2
100
AcDbLine
 10
1850.496615938453
 20
548.0529543723933
 30
0.0
 11
1850.496615938453
 21
493.9815833968241
 31
0.0
  0
LINE
  5
2F1
330
2EE
100
AcDbEntity
  8
0
  6
Continuous
 62
     0
370
    -2
100
AcDbLine
 10
1175.237601600194
 20
495.2315833968241
 30
0.0
 11
1847.996615938453
 21
495.2315833968241
 31
0.0
  0
SOLID
  5
2F2
330
2EE
100
AcDbEntity
  8
0
  6
Continuous
 62
     0
100
AcDbTrace
 10
1175.237601600194
 20
495.6482500634908
 30
0.0
 11
1175.237601600194
 21
494.8149167301574
 31
0.0
 12
1172.737601600194
 22
495.2315833968241
 32
0.0
 13
1172.737601600194
 23
495.2315833968241
 33
0.0
  0
SOLID
  5
2F3
330
2EE
100
AcDbEntity
  8
0
  6
Continuous
 62
     0
100
AcDbTrace
 10
1847.996615938453
 20
495.6482500634908
 30
0.0
 11
1847.996615938453
 21
494.8149167301574
 31
0.0
 12
1850.496615938453
 22
495.2315833968241
 32
0.0
 13
1850.496615938453
 23
495.2315833968241
 33
0.0
  0
MTEXT
  5
2F4
330
2EE
100
AcDbEntity
  8
0
  6
Continuous
 62
     0
100
AcDbMText
 10
1511.617108769323
 20
498.3565833968241
 30
0.0
 40
5.0
 41
0.0
 46
0.0
 71
     5
 72
     1
  1
\A1;677.759
 73
     1
 44
1.0
  0
POINT
  5
2F5
330
2EE
100
AcDbEntity
  8
Defpoints
  6
Continuous
 62
     0
100
AcDbPoint
 10
1172.737601600194
 20
548.6779543723931
 30
0.0
  0
POINT
  5
2F6
330
2EE
100
AcDbEntity
  8
Defpoints
  6
Continuous
 62
     0
100
AcDbPoint
 10
1850.496615938453
 20
548.6779543723931
 30
0.0
  0
POINT
  5
2F7
330
2EE
100
AcDbEntity
  8
Defpoints
  6
Continuous
 62
     0
100
AcDbPoint
 10
1850.496615938453
 20
495.2315833968241
 30
0.0
  0
ENDBLK
  5
2F9
330
2EE
100
AcDbEntity
  8
0
100
AcDbBlockEnd
  0
BLOCK
  5
305
330
2FB
100
AcDbEntity
  8
0
100
AcDbBlockBegin
  2
*D3
 70
     1
 10
0.0
 20
0.0
 30
0.0
  3
*D3
  1

  0
LINE
  5
2FC
330
2FB
100
AcDbEntity
  8
0
  6
Continuous
 62
     0
370
    -2
100
AcDbLine
 10
1172.737601600194
 20
548.0529543723933
 30
0.0
 11
1172.737601600194
 21
400.4504471229246
 31
0.0
  0
LINE
  5
2FD
330
2FB
100
AcDbEntity
  8
0
  6
Continuous
 62
     0
370
    -2
100
AcDbLine
 10
1872.791319296714
 20
548.0529543723933
 30
0.0
 11
1872.791319296714
 21
400.4504471229246
 31
0.0
  0
LINE
  5
2FE
330
2FB
100
AcDbEntity
  8
0
  6
Continuous
 62
     0
370
    -2
100
AcDbLine
 10
1175.237601600194
 20
401.7004471229246
 30
0.0
 11
1870.291319296713
 21
401.7004471229246
 31
0.0
  0
SOLID
  5
2FF
330
2FB
100
AcDbEntity
  8
0
  6
Continuous
 62
     0
100
AcDbTrace
 10
1175.237601600194
 20
402.1171137895914
 30
0.0
 11
1175.237601600194
 21
401.283780456258
 31
0.0
 12
1172.737601600194
 22
401.7004471229246
 32
0.0
 13
1172.737601600194
 23
401.7004471229246
 33
0.0
  0
SOLID
  5
300
330
2FB
100
AcDbEntity
  8
0
  6
Continuous
 62
     0
100
AcDbTrace
 10
1870.291319296713
 20
402.1171137895914
 30
0.0
 11
1870.291319296713
 21
401.283780456258
 31
0.0
 12
1872.791319296714
 22
401.7004471229246
 32
0.0
 13
1872.791319296714
 23
401.7004471229246
 33
0.0
  0
MTEXT
  5
301
330
2FB
100
AcDbEntity
  8
0
  6
Continuous
 62
     0
100
AcDbMText
 10
1522.764460448454
 20
427.3254471229246
 30
0.0
 40
50.0
 41
0.0
 46
0.0
 71
     5
 72
     1
  1
\A1;700.0537
 73
     1
 44
1.0
  0
POINT
  5
302
330
2FB
100
AcDbEntity
  8
Defpoints
  6
Continuous
 62
     0
100
AcDbPoint
 10
1172.737601600194
 20
548.6779543723931
 30
0.0
  0
POINT
  5
303
330
2FB
100
AcDbEntity
  8
Defpoints
  6
Continuous
 62
     0
100
AcDbPoint
 10
1872.791319296714
 20
548.6779543723931
 30
0.0
  0
POINT
  5
304
330
2FB
100
AcDbEntity
  8
Defpoints
  6
Continuous
 62
     0
100
AcDbPoint
 10
1872.791319296714
 20
401.7004471229246
 30
0.0
  0
ENDBLK
  5
306
330
2FB
100
AcDbEntity
  8
0
100
AcDbBlockEnd
  0
BLOCK
  5
312
330
308
100
AcDbEntity
  8
0
100
AcDbBlockBegin
  2
*D4
 70
     1
 10
0.0
 20
0.0
 30
0.0
  3
*D4
  1

  0
LINE
  5
309
330
308
100
AcDbEntity
  8
0
  6
Continuous
 62
     0
370
    -2
100
AcDbLine
 10
1877.250259968368
 20
353.3329447064334
 30
0.0
 11
1877.250259968368
 21
353.9579447064334
 31
0.0
  0
LINE
  5
30A
330
308
100
AcDbEntity
  8
0
  6
Continuous
 62
     0
370
    -2
100
AcDbLine
 10
2577.303977664884
 20
353.3329447064334
 30
0.0
 11
2577.303977664884
 21
353.9579447064334
 31
0.0
  0
LINE
  5
30B
330
308
100
AcDbEntity
  8
0
  6
Continuous
 62
     0
370
    -2
100
AcDbLine
 10
1879.750259968368
 20
352.7079447064334
 30
0.0
 11
2574.803977664884
 21
352.7079447064334
 31
0.0
  0
SOLID
  5
30C
330
308
100
AcDbEntity
  8
0
  6
Continuous
 62
     0
100
AcDbTrace
 10
1879.750259968368
 20
353.1246113731001
 30
0.0
 11
1879.750259968368
 21
352.2912780397667
 31
0.0
 12
1877.250259968368
 22
352.7079447064334
 32
0.0
 13
1877.250259968368
 23
352.7079447064334
 33
0.0
  0
SOLID
  5
30D
330
308
100
AcDbEntity
  8
0
  6
Continuous
 62
     0
100
AcDbTrace
 10
2574.803977664884
 20
353.1246113731001
 30
0.0
 11
2574.803977664884
 21
352.2912780397667
 31
0.0
 12
2577.303977664884
 22
352.7079447064334
 32
0.0
 13
2577.303977664884
 23
352.7079447064334
 33
0.0
  0
MTEXT
  5
30E
330
308
100
AcDbEntity
  8
0
  6
Continuous
 62
     0
100
AcDbMText
 10
2227.277118816626
 20
378.3329447064334
 30
0.0
 40
50.0
 41
0.0
 46
0.0
 71
     5
 72
     1
  1
\A1;700.0537
 73
     1
 44
1.0
  0
POINT
  5
30F
330
308
100
AcDbEntity
  8
Defpoints
  6
Continuous
 62
     0
100
AcDbPoint
 10
1877.250259968368
 20
352.7079447064334
 30
0.0
  0
POINT
  5
310
330
308
100
AcDbEntity
  8
Defpoints
  6
Continuous
 62
     0
100
AcDbPoint
 10
2577.303977664884
 20
352.7079447064334
 30
0.0
  0
POINT
  5
311
330
308
100
AcDbEntity
  8
Defpoints
  6
Continuous
 62
     0
100
AcDbPoint
 10
2577.303977664884
 20
352.7079447064334
 30
0.0
  0
ENDBLK
  5
313
330
308
100
AcDbEntity
  8
0
100
AcDbBlockEnd
  0
BLOCK
  5
31F
330
315
100
AcDbEntity
  8
0
100
AcDbBlockBegin
  2
*D5
 70
     1
 10
0.0
 20
0.0
 30
0.0
  3
*D5
  1

  0
LINE
  5
316
330
315
100
AcDbEntity
  8
0
  6
Continuous
 62
     0
370
    -2
100
AcDbLine
 10
1872.791319296714
 20
352.0829447064334
 30
0.0
 11
1872.791319296714
 21
257.926808432534
 31
0.0
  0
LINE
  5
317
330
315
100
AcDbEntity
  8
0
  6
Continuous
 62
     0
370
    -2
100
AcDbLine
 10
2572.845036993236
 20
352.0829447064334
 30
0.0
 11
2572.845036993236
 21
257.926808432534
 31
0.0
  0
LINE
  5
318
330
315
100
AcDbEntity
  8
0
  6
Continuous
 62
     0
370
    -2
100
AcDbLine
 10
1875.291319296713
 20
259.176808432534
 30
0.0
 11
2570.345036993237
 21
259.176808432534
 31
0.0
  0
SOLID
  5
319
330
315
100
AcDbEntity
  8
0
  6
Continuous
 62
     0
100
AcDbTrace
 10
1875.291319296713
 20
259.5934750992007
 30
0.0
 11
1875.291319296713
 21
258.7601417658673
 31
0.0
 12
1872.791319296714
 22
259.176808432534
 32
0.0
 13
1872.791319296714
 23
259.176808432534
 33
0.0
  0
SOLID
  5
31A
330
315
100
AcDbEntity
  8
0
  6
Continuous
 62
     0
100
AcDbTrace
 10
2570.345036993237
 20
259.5934750992007
 30
0.0
 11
2570.345036993237
 21
258.7601417658673
 31
0.0
 12
2572.845036993236
 22
259.176808432534
 32
0.0
 13
2572.845036993236
 23
259.176808432534
 33
0.0
  0
MTEXT
  5
31B
330
315
100
AcDbEntity
  8
0
  6
Continuous
 62
     0
100
AcDbMText
 10
2222.818178144975
 20
284.801808432534
 30
0.0
 40
50.0
 41
0.0
 46
0.0
 71
     5
 72
     1
  1
\A1;700.0537
 73
     1
 44
1.0
  0
POINT
  5
31C
330
315
100
AcDbEntity
  8
Defpoints
  6
Continuous
 62
     0
100
AcDbPoint
 10
1872.791319296714
 20
352.7079447064334
 30
0.0
  0
POINT
  5
31D
330
315
100
AcDbEntity
  8
Defpoints
  6
Continuous
 62
     0
100
AcDbPoint
 10
2572.845036993236
 20
352.7079447064334
 30
0.0
  0
POINT
  5
31E
330
315
100
AcDbEntity
  8
Defpoints
  6
Continuous
 62
     0
100
AcDbPoint
 10
2572.845036993236
 20
259.176808432534
 30
0.0
  0
ENDBLK
  5
320
330
315
100
AcDbEntity
  8
0
100
AcDbBlockEnd
  0
BLOCK
  5
32C
330
322
100
AcDbEntity
  8
0
100
AcDbBlockBegin
  2
*D6
 70
     1
 10
0.0
 20
0.0
 30
0.0
  3
*D6
  1

  0
LINE
  5
323
330
322
100
AcDbEntity
  8
0
  6
Continuous
 62
     0
370
    -2
100
AcDbLine
 10
2572.845036993236
 20
178.382264902526
 30
0.0
 11
2572.845036993236
 21
88.67998425436054
 31
0.0
  0
LINE
  5
324
330
322
100
AcDbEntity
  8
0
  6
Continuous
 62
     0
370
    -2
100
AcDbLine
 10
4374.257165082101
 20
178.382264902526
 30
0.0
 11
4374.257165082101
 21
88.67998425436054
 31
0.0
  0
LINE
  5
325
330
322
100
AcDbEntity
  8
0
  6
Continuous
 62
     0
370
    -2
100
AcDbLine
 10
2575.345036993236
 20
89.92998425436054
 30
0.0
 11
4371.7571650821
 21
89.92998425436054
 31
0.0
  0
SOLID
  5
326
330
322
100
AcDbEntity
  8
0
  6
Continuous
 62
     0
100
AcDbTrace
 10
2575.345036993236
 20
90.3466509210272
 30
0.0
 11
2575.345036993236
 21
89.51331758769386
 31
0.0
 12
2572.845036993236
 22
89.92998425436054
 32
0.0
 13
2572.845036993236
 23
89.92998425436054
 33
0.0
  0
SOLID
  5
327
330
322
100
AcDbEntity
  8
0
  6
Continuous
 62
     0
100
AcDbTrace
 10
4371.7571650821
 20
90.3466509210272
 30
0.0
 11
4371.7571650821
 21
89.51331758769386
 31
0.0
 12
4374.257165082101
 22
89.92998425436054
 32
0.0
 13
4374.257165082101
 23
89.92998425436054
 33
0.0
  0
MTEXT
  5
328
330
322
100
AcDbEntity
  8
0
  6
Continuous
 62
     0
100
AcDbMText
 10
3473.551101037668
 20
115.5549842543605
 30
0.0
 40
50.0
 41
0.0
 46
0.0
 71
     5
 72
     1
  1
\A1;1801.4121
 73
     1
 44
1.0
  0
POINT
  5
329
330
322
100
AcDbEntity
  8
Defpoints
  6
Continuous
 62
     0
100
AcDbPoint
 10
2572.845036993236
 20
179.007264902526
 30
0.0
  0
POINT
  5
32A
330
322
100
AcDbEntity
  8
Defpoints
  6
Continuous
 62
     0
100
AcDbPoint
 10
4374.257165082101
 20
179.007264902526
 30
0.0
  0
POINT
  5
32B
330
322
100
AcDbEntity
  8
Defpoints
  6
Continuous
 62
     0
100
AcDbPoint
 10
4374.257165082101
 20
89.92998425436054
 30
0.0
  0
ENDBLK
  5
32D
330
322
100
AcDbEntity
  8
0
100
AcDbBlockEnd
  0
BLOCK
  5
339
330
32F
100
AcDbEntity
  8
0
100
AcDbBlockBegin
  2
*D7
 70
     1
 10
0.0
 20
0.0
 30
0.0
  3
*D7
  1

  0
LINE
  5
330
330
32F
100
AcDbEntity
  8
0
  6
Continuous
 62
     0
370
    -2
100
AcDbLine
 10
4380.90978176711
 20
543.4209290016151
 30
0.0
 11
4380.90978176711
 21
404.7261588703039
 31
0.0
  0
LINE
  5
331
330
32F
100
AcDbEntity
  8
0
  6
Continuous
 62
     0
370
    -2
100
AcDbLine
 10
5566.988032673709
 20
543.4209290016151
 30
0.0
 11
5566.988032673709
 21
404.7261588703039
 31
0.0
  0
LINE
  5
332
330
32F
100
AcDbEntity
  8
0
  6
Continuous
 62
     0
370
    -2
100
AcDbLine
 10
4383.40978176711
 20
405.976158870304
 30
0.0
 11
5564.488032673708
 21
405.976158870304
 31
0.0
  0
SOLID
  5
333
330
32F
100
AcDbEntity
  8
0
  6
Continuous
 62
     0
100
AcDbTrace
 10
4383.40978176711
 20
406.3928255369707
 30
0.0
 11
4383.40978176711
 21
405.5594922036373
 31
0.0
 12
4380.90978176711
 22
405.976158870304
 32
0.0
 13
4380.90978176711
 23
405.976158870304
 33
0.0
  0
SOLID
  5
334
330
32F
100
AcDbEntity
  8
0
  6
Continuous
 62
     0
100
AcDbTrace
 10
5564.488032673708
 20
406.3928255369707
 30
0.0
 11
5564.488032673708
 21
405.5594922036373
 31
0.0
 12
5566.988032673709
 22
405.976158870304
 32
0.0
 13
5566.988032673709
 23
405.976158870304
 33
0.0
  0
MTEXT
  5
335
330
32F
100
AcDbEntity
  8
0
  6
Continuous
 62
     0
100
AcDbMText
 10
4973.948907220409
 20
431.601158870304
 30
0.0
 40
50.0
 41
0.0
 46
0.0
 71
     5
 72
     1
  1
\A1;1186.0783
 73
     1
 44
1.0
  0
POINT
  5
336
330
32F
100
AcDbEntity
  8
Defpoints
  6
Continuous
 62
     0
100
AcDbPoint
 10
4380.90978176711
 20
544.0459290016151
 30
0.0
  0
POINT
  5
337
330
32F
100
AcDbEntity
  8
Defpoints
  6
Continuous
 62
     0
100
AcDbPoint
 10
5566.988032673709
 20
544.0459290016151
 30
0.0
  0
POINT
  5
338
330
32F
100
AcDbEntity
  8
Defpoints
  6
Continuous
 62
     0
100
AcDbPoint
 10
5566.988032673709
 20
405.976158870304
 30
0.0
  0
ENDBLK
  5
33A
330
32F
100
AcDbEntity
  8
0
100
AcDbBlockEnd
  0
BLOCK
  5
346
330
33C
100
AcDbEntity
  8
0
100
AcDbBlockBegin
  2
*D8
 70
     1
 10
0.0
 20
0.0
 30
0.0
  3
*D8
  1

  0
LINE
  5
33D
330
33C
100
AcDbEntity
  8
0
  6
Continuous
 62
     0
370
    -2
100
AcDbLine
 10
5566.988032673709
 20
542.7959290016151
 30
0.0
 11
5566.988032673709
 21
404.7261588703039
 31
0.0
  0
LINE
  5
33E
330
33C
100
AcDbEntity
  8
0
  6
Continuous
 62
     0
370
    -2
100
AcDbLine
 10
6623.757036349537
 20
542.7959290016151
 30
0.0
 11
6623.757036349537
 21
404.7261588703039
 31
0.0
  0
LINE
  5
33F
330
33C
100
AcDbEntity
  8
0
  6
Continuous
 62
     0
370
    -2
100
AcDbLine
 10
5569.488032673707
 20
405.976158870304
 30
0.0
 11
6621.257036349536
 21
405.976158870304
 31
0.0
  0
SOLID
  5
340
330
33C
100
AcDbEntity
  8
0
  6
Continuous
 62
     0
100
AcDbTrace
 10
5569.488032673707
 20
406.3928255369707
 30
0.0
 11
5569.488032673707
 21
405.5594922036373
 31
0.0
 12
5566.988032673709
 22
405.976158870304
 32
0.0
 13
5566.988032673709
 23
405.976158870304
 33
0.0
  0
SOLID
  5
341
330
33C
100
AcDbEntity
  8
0
  6
Continuous
 62
     0
100
AcDbTrace
 10
6621.257036349536
 20
406.3928255369707
 30
0.0
 11
6621.257036349536
 21
405.5594922036373
 31
0.0
 12
6623.757036349537
 22
405.976158870304
 32
0.0
 13
6623.757036349537
 23
405.976158870304
 33
0.0
  0
MTEXT
  5
342
330
33C
100
AcDbEntity
  8
0
  6
Continuous
 62
     0
100
AcDbMText
 10
6095.372534511621
 20
431.601158870304
 30
0.0
 40
50.0
 41
0.0
 46
0.0
 71
     5
 72
     1
  1
\A1;1056.769
 73
     1
 44
1.0
  0
POINT
  5
343
330
33C
100
AcDbEntity
  8
Defpoints
  6
Continuous
 62
     0
100
AcDbPoint
 10
5566.988032673709
 20
543.4209290016151
 30
0.0
  0
POINT
  5
344
330
33C
100
AcDbEntity
  8
Defpoints
  6
Continuous
 62
     0
100
AcDbPoint
 10
6623.757036349537
 20
543.4209290016151
 30
0.0
  0
POINT
  5
345
330
33C
100
AcDbEntity
  8
Defpoints
  6
Continuous
 62
     0
100
AcDbPoint
 10
6623.757036349537
 20
405.976158870304
 30
0.0
  0
ENDBLK
  5
347
330
33C
100
AcDbEntity
  8
0
100
AcDbBlockEnd
  0
BLOCK
  5
353
330
349
100
AcDbEntity
  8
0
100
AcDbBlockBegin
  2
*D9
 70
     1
 10
0.0
 20
0.0
 30
0.0
  3
*D9
  1

  0
LINE
  5
34A
330
349
100
AcDbEntity
  8
0
  6
Continuous
 62
     0
370
    -2
100
AcDbLine
 10
6623.757036349537
 20
542.1709290016151
 30
0.0
 11
6623.757036349537
 21
404.7261588703039
 31
0.0
  0
LINE
  5
34B
330
349
100
AcDbEntity
  8
0
  6
Continuous
 62
     0
370
    -2
100
AcDbLine
 10
7881.17837024971
 20
542.1709290016151
 30
0.0
 11
7881.17837024971
 21
404.7261588703039
 31
0.0
  0
LINE
  5
34C
330
349
100
AcDbEntity
  8
0
  6
Continuous
 62
     0
370
    -2
100
AcDbLine
 10
6626.257036349535
 20
405.976158870304
 30
0.0
 11
7878.678370249708
 21
405.976158870304
 31
0.0
  0
SOLID
  5
34D
330
349
100
AcDbEntity
  8
0
  6
Continuous
 62
     0
100
AcDbTrace
 10
6626.257036349535
 20
406.3928255369707
 30
0.0
 11
6626.257036349535
 21
405.5594922036373
 31
0.0
 12
6623.757036349537
 22
405.976158870304
 32
0.0
 13
6623.757036349537
 23
405.976158870304
 33
0.0
  0
SOLID
  5
34E
330
349
100
AcDbEntity
  8
0
  6
Continuous
 62
     0
100
AcDbTrace
 10
7878.678370249708
 20
406.3928255369707
 30
0.0
 11
7878.678370249708
 21
405.5594922036373
 31
0.0
 12
7881.17837024971
 22
405.976158870304
 32
0.0
 13
7881.17837024971
 23
405.976158870304
 33
0.0
  0
MTEXT
  5
34F
330
349
100
AcDbEntity
  8
0
  6
Continuous
 62
     0
100
AcDbMText
 10
7252.467703299622
 20
431.601158870304
 30
0.0
 40
50.0
 41
0.0
 46
0.0
 71
     5
 72
     1
  1
\A1;1257.4213
 73
     1
 44
1.0
  0
POINT
  5
350
330
349
100
AcDbEntity
  8
Defpoints
  6
Continuous
 62
     0
100
AcDbPoint
 10
6623.757036349537
 20
542.7959290016151
 30
0.0
  0
POINT
  5
351
330
349
100
AcDbEntity
  8
Defpoints
  6
Continuous
 62
     0
100
AcDbPoint
 10
7881.17837024971
 20
542.7959290016151
 30
0.0
  0
POINT
  5
352
330
349
100
AcDbEntity
  8
Defpoints
  6
Continuous
 62
     0
100
AcDbPoint
 10
7881.17837024971
 20
405.976158870304
 30
0.0
  0
ENDBLK
  5
354
330
349
100
AcDbEntity
  8
0
100
AcDbBlockEnd
  0
BLOCK
  5
360
330
356
100
AcDbEntity
  8
0
100
AcDbBlockBegin
  2
*D10
 70
     1
 10
0.0
 20
0.0
 30
0.0
  3
*D10
  1

  0
LINE
  5
357
330
356
100
AcDbEntity
  8
0
  6
Continuous
 62
     0
370
    -2
100
AcDbLine
 10
7881.17837024971
 20
541.5459290016151
 30
0.0
 11
7881.17837024971
 21
404.7261588703039
 31
0.0
  0
LINE
  5
358
330
356
100
AcDbEntity
  8
0
  6
Continuous
 62
     0
370
    -2
100
AcDbLine
 10
8871.063231603617
 20
541.5459290016151
 30
0.0
 11
8871.063231603617
 21
404.7261588703039
 31
0.0
  0
LINE
  5
359
330
356
100
AcDbEntity
  8
0
  6
Continuous
 62
     0
370
    -2
100
AcDbLine
 10
7883.678370249708
 20
405.976158870304
 30
0.0
 11
8868.563231603619
 21
405.976158870304
 31
0.0
  0
SOLID
  5
35A
330
356
100
AcDbEntity
  8
0
  6
Continuous
 62
     0
100
AcDbTrace
 10
7883.678370249708
 20
406.3928255369707
 30
0.0
 11
7883.678370249708
 21
405.5594922036373
 31
0.0
 12
7881.17837024971
 22
405.976158870304
 32
0.0
 13
7881.17837024971
 23
405.976158870304
 33
0.0
  0
SOLID
  5
35B
330
356
100
AcDbEntity
  8
0
  6
Continuous
 62
     0
100
AcDbTrace
 10
8868.563231603619
 20
406.3928255369707
 30
0.0
 11
8868.563231603619
 21
405.5594922036373
 31
0.0
 12
8871.063231603617
 22
405.976158870304
 32
0.0
 13
8871.063231603617
 23
405.976158870304
 33
0.0
  0
MTEXT
  5
35C
330
356
100
AcDbEntity
  8
0
  6
Continuous
 62
     0
100
AcDbMText
 10
8376.120800926662
 20
431.601158870304
 30
0.0
 40
50.0
 41
0.0
 46
0.0
 71
     5
 72
     1
  1
\A1;989.8849
 73
     1
 44
1.0
  0
POINT
  5
35D
330
356
100
AcDbEntity
  8
Defpoints
  6
Continuous
 62
     0
100
AcDbPoint
 10
7881.17837024971
 20
542.1709290016151
 30
0.0
  0
POINT
  5
35E
330
356
100
AcDbEntity
  8
Defpoints
  6
Continuous
 62
     0
100
AcDbPoint
 10
8871.063231603617
 20
542.1709290016151
 30
0.0
  0
POINT
  5
35F
330
356
100
AcDbEntity
  8
Defpoints
  6
Continuous
 62
     0
100
AcDbPoint
 10
8871.063231603617
 20
405.976158870304
 30
0.0
  0
ENDBLK
  5
361
330
356
100
AcDbEntity
  8
0
100
AcDbBlockEnd
  0
BLOCK
  5
36D
330
363
100
AcDbEntity
  8
0
100
AcDbBlockBegin
  2
*D11
 70
     1
 10
0.0
 20
0.0
 30
0.0
  3
*D11
  1

  0
LINE
  5
364
330
363
100
AcDbEntity
  8
0
  6
Continuous
 62
     0
370
    -2
100
AcDbLine
 10
1182.957493361646
 20
1758.720438252016
 30
0.0
 11
1182.957493361646
 21
1908.873775978029
 31
0.0
  0
LINE
  5
365
330
363
100
AcDbEntity
  8
0
  6
Continuous
 62
     0
370
    -2
100
AcDbLine
 10
8884.960361179913
 20
1758.720438252016
 30
0.0
 11
8884.960361179913
 21
1908.873775978029
 31
0.0
  0
LINE
  5
366
330
363
100
AcDbEntity
  8
0
  6
Continuous
 62
     0
370
    -2
100
AcDbLine
 10
1185.457493361646
 20
1907.623775978029
 30
0.0
 11
8882.460361179914
 21
1907.623775978029
 31
0.0
  0
SOLID
  5
367
330
363
100
AcDbEntity
  8
0
  6
Continuous
 62
     0
100
AcDbTrace
 10
1185.457493361646
 20
1908.040442644695
 30
0.0
 11
1185.457493361646
 21
1907.207109311362
 31
0.0
 12
1182.957493361646
 22
1907.623775978029
 32
0.0
 13
1182.957493361646
 23
1907.623775978029
 33
0.0
  0
SOLID
  5
368
330
363
100
AcDbEntity
  8
0
  6
Continuous
 62
     0
100
AcDbTrace
 10
8882.460361179914
 20
1908.040442644695
 30
0.0
 11
8882.460361179914
 21
1907.207109311362
 31
0.0
 12
8884.960361179913
 22
1907.623775978029
 32
0.0
 13
8884.960361179913
 23
1907.623775978029
 33
0.0
  0
MTEXT
  5
369
330
363
100
AcDbEntity
  8
0
  6
Continuous
 62
     0
100
AcDbMText
 10
5033.958927270779
 20
1933.248775978029
 30
0.0
 40
50.0
 41
0.0
 46
0.0
 71
     5
 72
     1
  1
\A1;7702.0029
 73
     1
 44
1.0
  0
POINT
  5
36A
330
363
100
AcDbEntity
  8
Defpoints
  6
Continuous
 62
     0
100
AcDbPoint
 10
1182.957493361646
 20
1758.095438252016
 30
0.0
  0
POINT
  5
36B
330
363
100
AcDbEntity
  8
Defpoints
  6
Continuous
 62
     0
100
AcDbPoint
 10
8884.960361179913
 20
1758.095438252016
 30
0.0
  0
POINT
  5
36C
330
363
100
AcDbEntity
  8
Defpoints
  6
Continuous
 62
     0
100
AcDbPoint
 10
8884.960361179913
 20
1907.623775978029
 30
0.0
  0
ENDBLK
  5
36E
330
363
100
AcDbEntity
  8
0
100
AcDbBlockEnd
  0
BLOCK
  5
37A
330
370
100
AcDbEntity
  8
0
100
AcDbBlockBegin
  2
*D12
 70
     1
 10
0.0
 20
0.0
 30
0.0
  3
*D12
  1

  0
LINE
  5
371
330
370
100
AcDbEntity
  8
0
  6
Continuous
 62
     0
370
    -2
100
AcDbLine
 10
972.7541877625153
 20
1391.75101082328
 30
0.0
 11
912.2496718770527
 21
1391.75101082328
 31
0.0
  0
LINE
  5
372
330
370
100
AcDbEntity
  8
0
  6
Continuous
 62
     0
370
    -2
100
AcDbLine
 10
972.7541877625153
 20
890.8310794411319
 30
0.0
 11
912.2496718770522
 21
890.8310794411319
 31
0.0
  0
LINE
  5
373
330
370
100
AcDbEntity
  8
0
  6
Continuous
 62
     0
370
    -2
100
AcDbLine
 10
913.4996718770526
 20
1389.25101082328
 30
0.0
 11
913.4996718770526
 21
893.3310794411317
 31
0.0
  0
SOLID
  5
374
330
370
100
AcDbEntity
  8
0
  6
Continuous
 62
     0
100
AcDbTrace
 10
913.083005210386
 20
1389.25101082328
 30
0.0
 11
913.9163385437191
 21
1389.25101082328
 31
0.0
 12
913.4996718770526
 22
1391.75101082328
 32
0.0
 13
913.4996718770526
 23
1391.75101082328
 33
0.0
  0
SOLID
  5
375
330
370
100
AcDbEntity
  8
0
  6
Continuous
 62
     0
100
AcDbTrace
 10
913.083005210386
 20
893.3310794411317
 30
0.0
 11
913.9163385437191
 21
893.3310794411317
 31
0.0
 12
913.4996718770526
 22
890.8310794411319
 32
0.0
 13
913.4996718770526
 23
890.8310794411319
 33
0.0
  0
MTEXT
  5
376
330
370
100
AcDbEntity
  8
0
  6
Continuous
 62
     0
100
AcDbMText
 10
887.8746718770525
 20
1141.291045132206
 30
0.0
 40
50.0
 41
0.0
 46
0.0
 71
     5
 72
     1
  1
\A1;500.9199
 11
0.0000000000000001
 21
1.0
 31
0.0
 73
     1
 44
1.0
  0
POINT
  5
377
330
370
100
AcDbEntity
  8
Defpoints
  6
Continuous
 62
     0
100
AcDbPoint
 10
973.3791877625153
 20
1391.75101082328
 30
0.0
  0
POINT
  5
378
330
370
100
AcDbEntity
  8
Defpoints
  6
Continuous
 62
     0
100
AcDbPoint
 10
973.3791877625153
 20
890.8310794411319
 30
0.0
  0
POINT
  5
379
330
370
100
AcDbEntity
  8
Defpoints
  6
Continuous
 62
     0
100
AcDbPoint
 10
913.4996718770526
 20
890.8310794411319
 30
0.0
  0
ENDBLK
  5
37B
330
370
100
AcDbEntity
  8
0
100
AcDbBlockEnd
  0
BLOCK
  5
387
330
37D
100
AcDbEntity
  8
0
100
AcDbBlockBegin
  2
*D13
 70
     1
 10
0.0
 20
0.0
 30
0.0
  3
*D13
  1

  0
LINE
  5
37E
330
37D
100
AcDbEntity
  8
0
  6
Continuous
 62
     0
370
    -2
100
AcDbLine
 10
2582.406804202348
 20
1598.591346113355
 30
0.0
 11
2583.031804202348
 21
1598.591346113355
 31
0.0
  0
LINE
  5
37F
330
37D
100
AcDbEntity
  8
0
  6
Continuous
 62
     0
370
    -2
100
AcDbLine
 10
2581.156804202347
 20
658.2450604909884
 30
0.0
 11
2580.531804202347
 21
658.2450604909884
 31
0.0
  0
LINE
  5
380
330
37D
100
AcDbEntity
  8
0
  6
Continuous
 62
     0
370
    -2
100
AcDbLine
 10
2581.781804202349
 20
1596.091346113355
 30
0.0
 11
2581.781804202349
 21
660.7450604909884
 31
0.0
  0
SOLID
  5
381
330
37D
100
AcDbEntity
  8
0
  6
Continuous
 62
     0
100
AcDbTrace
 10
2581.365137535681
 20
1596.091346113355
 30
0.0
 11
2582.198470869014
 21
1596.091346113355
 31
0.0
 12
2581.781804202349
 22
1598.591346113355
 32
0.0
 13
2581.781804202349
 23
1598.591346113355
 33
0.0
  0
SOLID
  5
382
330
37D
100
AcDbEntity
  8
0
  6
Continuous
 62
     0
100
AcDbTrace
 10
2581.365137535681
 20
660.7450604909884
 30
0.0
 11
2582.198470869014
 21
660.7450604909884
 31
0.0
 12
2581.781804202349
 22
658.2450604909884
 32
0.0
 13
2581.781804202349
 23
658.2450604909884
 33
0.0
  0
MTEXT
  5
383
330
37D
100
AcDbEntity
  8
0
  6
Continuous
 62
     0
100
AcDbMText
 10
2556.156804202347
 20
1128.418203302172
 30
0.0
 40
50.0
 41
0.0
 46
0.0
 71
     5
 72
     1
  1
\A1;940.3463
 11
0.0000000000000001
 21
1.0
 31
0.0
 73
     1
 44
1.0
  0
POINT
  5
384
330
37D
100
AcDbEntity
  8
Defpoints
  6
Continuous
 62
     0
100
AcDbPoint
 10
2581.781804202349
 20
1598.591346113355
 30
0.0
  0
POINT
  5
385
330
37D
100
AcDbEntity
  8
Defpoints
  6
Continuous
 62
     0
100
AcDbPoint
 10
2581.781804202349
 20
658.2450604909884
 30
0.0
  0
POINT
  5
386
330
37D
100
AcDbEntity
  8
Defpoints
  6
Continuous
 62
     0
100
AcDbPoint
 10
2581.781804202349
 20
658.2450604909884
 30
0.0
  0
ENDBLK
  5
388
330
37D
100
AcDbEntity
  8
0
100
AcDbBlockEnd
  0
BLOCK
  5
42A
330
420
100
AcDbEntity
  8
0
100
AcDbBlockBegin
  2
*D14
 70
     1
 10
0.0
 20
0.0
 30
0.0
  3
*D14
  1

  0
LINE
  5
421
330
420
100
AcDbEntity
  8
0
  6
Continuous
 62
     0
370
    -2
100
AcDbLine
 10
1102.557203160584
 20
-266.0188541783409
 30
0.0
 11
1006.482127688985
 21
-266.0188541783409
 31
0.0
  0
LINE
  5
422
330
420
100
AcDbEntity
  8
0
  6
Continuous
 62
     0
370
    -2
100
AcDbLine
 10
1102.557203160584
 20
-726.1447686181128
 30
0.0
 11
1006.482127688985
 21
-726.1447686181128
 31
0.0
  0
LINE
  5
423
330
420
100
AcDbEntity
  8
0
  6
Continuous
 62
     0
370
    -2
100
AcDbLine
 10
1007.732127688985
 20
-268.5188541783409
 30
0.0
 11
1007.732127688985
 21
-723.6447686181128
 31
0.0
  0
SOLID
  5
424
330
420
100
AcDbEntity
  8
0
  6
Continuous
 62
     0
100
AcDbTrace
 10
1007.315461022318
 20
-268.5188541783409
 30
0.0
 11
1008.148794355652
 21
-268.5188541783409
 31
0.0
 12
1007.732127688985
 22
-266.0188541783409
 32
0.0
 13
1007.732127688985
 23
-266.0188541783409
 33
0.0
  0
SOLID
  5
425
330
420
100
AcDbEntity
  8
0
  6
Continuous
 62
     0
100
AcDbTrace
 10
1007.315461022318
 20
-723.6447686181128
 30
0.0
 11
1008.148794355652
 21
-723.6447686181128
 31
0.0
 12
1007.732127688985
 22
-726.1447686181128
 32
0.0
 13
1007.732127688985
 23
-726.1447686181128
 33
0.0
  0
MTEXT
  5
426
330
420
100
AcDbEntity
  8
0
  6
Continuous
 62
     0
100
AcDbMText
 10
982.1071276889853
 20
-496.0818113982266
 30
0.0
 40
50.0
 41
0.0
 46
0.0
 71
     5
 72
     1
  1
\A1;460.1259
 11
0.0000000000000001
 21
1.0
 31
0.0
 73
     1
 44
1.0
  0
POINT
  5
427
330
420
100
AcDbEntity
  8
Defpoints
  6
Continuous
 62
     0
100
AcDbPoint
 10
1103.182203160584
 20
-266.0188541783409
 30
0.0
  0
POINT
  5
428
330
420
100
AcDbEntity
  8
Defpoints
  6
Continuous
 62
     0
100
AcDbPoint
 10
1103.182203160584
 20
-726.1447686181128
 30
0.0
  0
POINT
  5
429
330
420
100
AcDbEntity
  8
Defpoints
  6
Continuous
 62
     0
100
AcDbPoint
 10
1007.732127688985
 20
-726.1447686181128
 30
0.0
  0
ENDBLK
  5
42B
330
420
100
AcDbEntity
  8
0
100
AcDbBlockEnd
  0
BLOCK
  5
438
330
42D
100
AcDbEntity
  8
0
100
AcDbBlockBegin
  2
*D15
 70
     1
 10
0.0
 20
0.0
 30
0.0
  3
*D15
  1

  0
LINE
  5
42E
330
42D
100
AcDbEntity
  8
0
  6
Continuous
 62
     0
370
    -2
100
AcDbLine
 10
8953.946873852958
 20
-394.230364017707
 30
0.0
 11
9025.121935244518
 21
-394.230364017707
 31
0.0
  0
LINE
  5
42F
330
42D
100
AcDbEntity
  8
0
  6
Continuous
 62
     0
370
    -2
100
AcDbLine
 10
8953.946873852958
 20
-597.3490079031288
 30
0.0
 11
9025.121935244518
 21
-597.3490079031289
 31
0.0
  0
LINE
  5
430
330
42D
100
AcDbEntity
  8
0
  6
Continuous
 62
     0
370
    -2
100
AcDbLine
 10
9023.871935244518
 20
-396.730364017707
 30
0.0
 11
9023.871935244518
 21
-594.8490079031289
 31
0.0
  0
LINE
  5
431
330
42D
100
AcDbEntity
  8
0
  6
Continuous
 62
     0
370
    -2
100
AcDbLine
 10
9023.871935244518
 20
-597.3490079031289
 30
0.0
 11
9023.871935244518
 21
-909.4323412364625
 31
0.0
  0
SOLID
  5
432
330
42D
100
AcDbEntity
  8
0
  6
Continuous
 62
     0
100
AcDbTrace
 10
9023.455268577846
 20
-396.730364017707
 30
0.0
 11
9024.288601911178
 21
-396.730364017707
 31
0.0
 12
9023.871935244518
 22
-394.230364017707
 32
0.0
 13
9023.871935244518
 23
-394.230364017707
 33
0.0
  0
SOLID
  5
433
330
42D
100
AcDbEntity
  8
0
  6
Continuous
 62
     0
100
AcDbTrace
 10
9023.455268577846
 20
-594.8490079031289
 30
0.0
 11
9024.288601911178
 21
-594.8490079031289
 31
0.0
 12
9023.871935244518
 22
-597.3490079031289
 32
0.0
 13
9023.871935244518
 23
-597.3490079031289
 33
0.0
  0
MTEXT
  5
434
330
42D
100
AcDbEntity
  8
0
  6
Continuous
 62
     0
100
AcDbMText
 10
8998.246935244514
 20
-754.6406745697943
 30
0.0
 40
50.0
 41
0.0
 46
0.0
 71
     5
 72
     1
  1
\A1;203.1186
 11
0.0000000000000001
 21
1.0
 31
0.0
 73
     1
 44
1.0
  0
POINT
  5
435
330
42D
100
AcDbEntity
  8
Defpoints
  6
Continuous
 62
     0
100
AcDbPoint
 10
8953.321873852958
 20
-394.230364017707
 30
0.0
  0
POINT
  5
436
330
42D
100
AcDbEntity
  8
Defpoints
  6
Continuous
 62
     0
100
AcDbPoint
 10
8953.321873852958
 20
-597.3490079031288
 30
0.0
  0
POINT
  5
437
330
42D
100
AcDbEntity
  8
Defpoints
  6
Continuous
 62
     0
100
AcDbPoint
 10
9023.871935244518
 20
-597.3490079031289
 30
0.0
  0
ENDBLK
  5
439
330
42D
100
AcDbEntity
  8
0
100
AcDbBlockEnd
  0
BLOCK
  5
460
330
456
100
AcDbEntity
  8
0
100
AcDbBlockBegin
  2
*D16
 70
     1
 10
0.0
 20
0.0
 30
0.0
  3
*D16
  1

  0
LINE
  5
547
330
456
100
AcDbEntity
  8
0
  6
Continuous
 62
     0
370
    -2
100
AcDbLine
 10
4384.167613313421
 20
402.2881085591944
 30
0.0
 11
4384.167613313421
 21
407.058387533727
 31
0.0
  0
LINE
  5
548
330
456
100
AcDbEntity
  8
0
  6
Continuous
 62
     0
370
    -2
100
AcDbLine
 10
5566.918733575516
 20
402.2881085591944
 30
0.0
 11
5566.918733575516
 21
407.058387533727
 31
0.0
  0
LINE
  5
549
330
456
100
AcDbEntity
  8
0
  6
Continuous
 62
     0
370
    -2
100
AcDbLine
 10
4386.66761331342
 20
405.808387533727
 30
0.0
 11
5564.418733575516
 21
405.808387533727
 31
0.0
  0
SOLID
  5
54A
330
456
100
AcDbEntity
  8
0
  6
Continuous
 62
     0
100
AcDbTrace
 10
4386.66761331342
 20
406.2250542003935
 30
0.0
 11
4386.66761331342
 21
405.3917208670601
 31
0.0
 12
4384.167613313421
 22
405.808387533727
 32
0.0
 13
4384.167613313421
 23
405.808387533727
 33
0.0
  0
SOLID
  5
54B
330
456
100
AcDbEntity
  8
0
  6
Continuous
 62
     0
100
AcDbTrace
 10
5564.418733575516
 20
406.2250542003935
 30
0.0
 11
5564.418733575516
 21
405.3917208670601
 31
0.0
 12
5566.918733575516
 22
405.808387533727
 32
0.0
 13
5566.918733575516
 23
405.808387533727
 33
0.0
  0
MTEXT
  5
54C
330
456
100
AcDbEntity
  8
0
  6
Continuous
 62
     0
100
AcDbMText
 10
4975.543173444467
 20
436.433387533727
 30
0.0
 40
50.0
 41
0.0
 46
0.0
 71
     5
 72
     1
  1
\A1;1200
 73
     1
 44
1.0
  0
POINT
  5
54D
330
456
100
AcDbEntity
  8
Defpoints
  6
Continuous
 62
     0
100
AcDbPoint
 10
4384.167613313421
 20
401.6631085591943
 30
0.0
  0
POINT
  5
54E
330
456
100
AcDbEntity
  8
Defpoints
  6
Continuous
 62
     0
100
AcDbPoint
 10
5566.918733575516
 20
401.6631085591943
 30
0.0
  0
POINT
  5
54F
330
456
100
AcDbEntity
  8
Defpoints
  6
Continuous
 62
     0
100
AcDbPoint
 10
5566.918733575516
 20
405.808387533727
 30
0.0
  0
ENDBLK
  5
461
330
456
100
AcDbEntity
  8
0
100
AcDbBlockEnd
  0
BLOCK
  5
46D
330
463
100
AcDbEntity
  8
0
100
AcDbBlockBegin
  2
*D17
 70
     1
 10
0.0
 20
0.0
 30
0.0
  3
*D17
  1

  0
LINE
  5
550
330
463
100
AcDbEntity
  8
0
  6
Continuous
 62
     0
370
    -2
100
AcDbLine
 10
5566.918733575516
 20
525.3964648618366
 30
0.0
 11
5566.918733575516
 21
403.4761588703039
 31
0.0
  0
LINE
  5
551
330
463
100
AcDbEntity
  8
0
  6
Continuous
 62
     0
370
    -2
100
AcDbLine
 10
6623.757036349537
 20
525.3964648618366
 30
0.0
 11
6623.757036349537
 21
403.4761588703039
 31
0.0
  0
LINE
  5
552
330
463
100
AcDbEntity
  8
0
  6
Continuous
 62
     0
370
    -2
100
AcDbLine
 10
5569.418733575516
 20
404.7261588703039
 30
0.0
 11
6621.257036349536
 21
404.7261588703039
 31
0.0
  0
SOLID
  5
553
330
463
100
AcDbEntity
  8
0
  6
Continuous
 62
     0
100
AcDbTrace
 10
5569.418733575516
 20
405.1428255369707
 30
0.0
 11
5569.418733575516
 21
404.3094922036373
 31
0.0
 12
5566.918733575516
 22
404.7261588703039
 32
0.0
 13
5566.918733575516
 23
404.7261588703039
 33
0.0
  0
SOLID
  5
554
330
463
100
AcDbEntity
  8
0
  6
Continuous
 62
     0
100
AcDbTrace
 10
6621.257036349536
 20
405.1428255369707
 30
0.0
 11
6621.257036349536
 21
404.3094922036373
 31
0.0
 12
6623.757036349537
 22
404.7261588703039
 32
0.0
 13
6623.757036349537
 23
404.7261588703039
 33
0.0
  0
MTEXT
  5
555
330
463
100
AcDbEntity
  8
0
  6
Continuous
 62
     0
100
AcDbMText
 10
6095.337884962526
 20
435.3511588703041
 30
0.0
 40
50.0
 41
0.0
 46
0.0
 71
     5
 72
     1
  1
\A1;1100
 73
     1
 44
1.0
  0
POINT
  5
556
330
463
100
AcDbEntity
  8
Defpoints
  6
Continuous
 62
     0
100
AcDbPoint
 10
5566.918733575516
 20
526.0214648618366
 30
0.0
  0
POINT
  5
557
330
463
100
AcDbEntity
  8
Defpoints
  6
Continuous
 62
     0
100
AcDbPoint
 10
6623.757036349537
 20
526.0214648618366
 30
0.0
  0
POINT
  5
558
330
463
100
AcDbEntity
  8
Defpoints
  6
Continuous
 62
     0
100
AcDbPoint
 10
6623.757036349537
 20
404.7261588703039
 30
0.0
  0
ENDBLK
  5
46E
330
463
100
AcDbEntity
  8
0
100
AcDbBlockEnd
  0
BLOCK
  5
47A
330
470
100
AcDbEntity
  8
0
100
AcDbBlockBegin
  2
*D18
 70
     1
 10
0.0
 20
0.0
 30
0.0
  3
*D18
  1

  0
LINE
  5
559
330
470
100
AcDbEntity
  8
0
  6
Continuous
 62
     0
370
    -2
100
AcDbLine
 10
6625.460491380708
 20
524.7714648618366
 30
0.0
 11
6625.460491380708
 21
405.1428255369707
 31
0.0
  0
LINE
  5
55A
330
470
100
AcDbEntity
  8
0
  6
Continuous
 62
     0
370
    -2
100
AcDbLine
 10
7881.17837024971
 20
540.9209290016151
 30
0.0
 11
7881.17837024971
 21
405.1428255369707
 31
0.0
  0
LINE
  5
55B
330
470
100
AcDbEntity
  8
0
  6
Continuous
 62
     0
370
    -2
100
AcDbLine
 10
6627.960491380709
 20
406.3928255369707
 30
0.0
 11
7878.678370249708
 21
406.3928255369707
 31
0.0
  0
SOLID
  5
55C
330
470
100
AcDbEntity
  8
0
  6
Continuous
 62
     0
100
AcDbTrace
 10
6627.960491380709
 20
406.8094922036373
 30
0.0
 11
6627.960491380709
 21
405.976158870304
 31
0.0
 12
6625.460491380708
 22
406.3928255369707
 32
0.0
 13
6625.460491380708
 23
406.3928255369707
 33
0.0
  0
SOLID
  5
55D
330
470
100
AcDbEntity
  8
0
  6
Continuous
 62
     0
100
AcDbTrace
 10
7878.678370249708
 20
406.8094922036373
 30
0.0
 11
7878.678370249708
 21
405.976158870304
 31
0.0
 12
7881.17837024971
 22
406.3928255369707
 32
0.0
 13
7881.17837024971
 23
406.3928255369707
 33
0.0
  0
MTEXT
  5
55E
330
470
100
AcDbEntity
  8
0
  6
Continuous
 62
     0
100
AcDbMText
 10
7253.319430815209
 20
437.0178255369706
 30
0.0
 40
50.0
 41
0.0
 46
0.0
 71
     5
 72
     1
  1
\A1;1300
 73
     1
 44
1.0
  0
POINT
  5
55F
330
470
100
AcDbEntity
  8
Defpoints
  6
Continuous
 62
     0
100
AcDbPoint
 10
6625.460491380708
 20
525.3964648618366
 30
0.0
  0
POINT
  5
560
330
470
100
AcDbEntity
  8
Defpoints
  6
Continuous
 62
     0
100
AcDbPoint
 10
7881.17837024971
 20
541.5459290016151
 30
0.0
  0
POINT
  5
561
330
470
100
AcDbEntity
  8
Defpoints
  6
Continuous
 62
     0
100
AcDbPoint
 10
7881.17837024971
 20
406.3928255369707
 30
0.0
  0
ENDBLK
  5
47B
330
470
100
AcDbEntity
  8
0
100
AcDbBlockEnd
  0
BLOCK
  5
487
330
47D
100
AcDbEntity
  8
0
100
AcDbBlockBegin
  2
*D19
 70
     1
 10
0.0
 20
0.0
 30
0.0
  3
*D19
  1

  0
LINE
  5
562
330
47D
100
AcDbEntity
  8
0
  6
Continuous
 62
     0
370
    -2
100
AcDbLine
 10
7881.17837024971
 20
540.2959290016151
 30
0.0
 11
7881.17837024971
 21
404.5583875337269
 31
0.0
  0
LINE
  5
563
330
47D
100
AcDbEntity
  8
0
  6
Continuous
 62
     0
370
    -2
100
AcDbLine
 10
8874.471818517104
 20
540.2959290016151
 30
0.0
 11
8874.471818517104
 21
404.5583875337269
 31
0.0
  0
LINE
  5
564
330
47D
100
AcDbEntity
  8
0
  6
Continuous
 62
     0
370
    -2
100
AcDbLine
 10
7883.678370249708
 20
405.808387533727
 30
0.0
 11
8871.971818517105
 21
405.808387533727
 31
0.0
  0
SOLID
  5
565
330
47D
100
AcDbEntity
  8
0
  6
Continuous
 62
     0
100
AcDbTrace
 10
7883.678370249708
 20
406.2250542003935
 30
0.0
 11
7883.678370249708
 21
405.3917208670601
 31
0.0
 12
7881.17837024971
 22
405.808387533727
 32
0.0
 13
7881.17837024971
 23
405.808387533727
 33
0.0
  0
SOLID
  5
566
330
47D
100
AcDbEntity
  8
0
  6
Continuous
 62
     0
100
AcDbTrace
 10
8871.971818517105
 20
406.2250542003935
 30
0.0
 11
8871.971818517105
 21
405.3917208670601
 31
0.0
 12
8874.471818517104
 22
405.808387533727
 32
0.0
 13
8874.471818517104
 23
405.808387533727
 33
0.0
  0
MTEXT
  5
567
330
47D
100
AcDbEntity
  8
0
  6
Continuous
 62
     0
100
AcDbMText
 10
8377.825094383407
 20
436.433387533727
 30
0.0
 40
50.0
 41
0.0
 46
0.0
 71
     5
 72
     1
  1
\A1;1000
 73
     1
 44
1.0
  0
POINT
  5
568
330
47D
100
AcDbEntity
  8
Defpoints
  6
Continuous
 62
     0
100
AcDbPoint
 10
7881.17837024971
 20
540.9209290016151
 30
0.0
  0
POINT
  5
569
330
47D
100
AcDbEntity
  8
Defpoints
  6
Continuous
 62
     0
100
AcDbPoint
 10
8874.471818517104
 20
540.9209290016151
 30
0.0
  0
POINT
  5
56A
330
47D
100
AcDbEntity
  8
Defpoints
  6
Continuous
 62
     0
100
AcDbPoint
 10
8874.471818517104
 20
405.808387533727
 30
0.0
  0
ENDBLK
  5
488
330
47D
100
AcDbEntity
  8
0
100
AcDbBlockEnd
  0
BLOCK
  5
494
330
48A
100
AcDbEntity
  8
0
100
AcDbBlockBegin
  2
*D20
 70
     1
 10
0.0
 20
0.0
 30
0.0
  3
*D20
  1

  0
LINE
  5
56B
330
48A
100
AcDbEntity
  8
0
  6
Continuous
 62
     0
370
    -2
100
AcDbLine
 10
8999.596921164465
 20
-398.3756429922396
 30
0.0
 11
9116.422029867532
 21
-398.3756429922396
 31
0.0
  0
LINE
  5
56C
330
48A
100
AcDbEntity
  8
0
  6
Continuous
 62
     0
370
    -2
100
AcDbLine
 10
8999.596921164465
 20
-597.3490079031288
 30
0.0
 11
9116.422029867532
 21
-597.3490079031288
 31
0.0
  0
LINE
  5
56D
330
48A
100
AcDbEntity
  8
0
  6
Continuous
 62
     0
370
    -2
100
AcDbLine
 10
9115.172029867531
 20
-400.8756429922396
 30
0.0
 11
9115.172029867531
 21
-594.8490079031288
 31
0.0
  0
SOLID
  5
56E
330
48A
100
AcDbEntity
  8
0
  6
Continuous
 62
     0
100
AcDbTrace
 10
9114.755363200869
 20
-400.8756429922396
 30
0.0
 11
9115.588696534198
 21
-400.8756429922396
 31
0.0
 12
9115.172029867531
 22
-398.3756429922396
 32
0.0
 13
9115.172029867531
 23
-398.3756429922396
 33
0.0
  0
SOLID
  5
56F
330
48A
100
AcDbEntity
  8
0
  6
Continuous
 62
     0
100
AcDbTrace
 10
9114.755363200869
 20
-594.8490079031288
 30
0.0
 11
9115.588696534198
 21
-594.8490079031288
 31
0.0
 12
9115.172029867531
 22
-597.3490079031288
 32
0.0
 13
9115.172029867531
 23
-597.3490079031288
 33
0.0
  0
MTEXT
  5
570
330
48A
100
AcDbEntity
  8
0
  6
Continuous
 62
     0
100
AcDbMText
 10
9084.547029867533
 20
-497.8623254476827
 30
0.0
 40
50.0
 41
0.0
 46
0.0
 71
     5
 72
     1
  1
\A1;200
 11
0.0000000000000001
 21
1.0
 31
0.0
 73
     1
 44
1.0
  0
POINT
  5
571
330
48A
100
AcDbEntity
  8
Defpoints
  6
Continuous
 62
     0
100
AcDbPoint
 10
8998.971921164466
 20
-398.3756429922396
 30
0.0
  0
POINT
  5
572
330
48A
100
AcDbEntity
  8
Defpoints
  6
Continuous
 62
     0
100
AcDbPoint
 10
8998.971921164466
 20
-597.3490079031288
 30
0.0
  0
POINT
  5
573
330
48A
100
AcDbEntity
  8
Defpoints
  6
Continuous
 62
     0
100
AcDbPoint
 10
9115.172029867531
 20
-597.3490079031288
 30
0.0
  0
ENDBLK
  5
495
330
48A
100
AcDbEntity
  8
0
100
AcDbBlockEnd
  0
BLOCK
  5
4A1
330
497
100
AcDbEntity
  8
0
100
AcDbBlockBegin
  2
*D21
 70
     1
 10
0.0
 20
0.0
 30
0.0
  3
*D21
  1

  0
LINE
  5
574
330
497
100
AcDbEntity
  8
0
  6
Continuous
 62
     0
370
    -2
100
AcDbLine
 10
1051.574607979139
 20
-265.8846448690856
 30
0.0
 11
938.8995123717942
 21
-265.8846448690856
 31
0.0
  0
LINE
  5
575
330
497
100
AcDbEntity
  8
0
  6
Continuous
 62
     0
370
    -2
100
AcDbLine
 10
1051.574607979139
 20
-726.0105463755133
 30
0.0
 11
938.8995123717942
 21
-726.0105463755133
 31
0.0
  0
LINE
  5
576
330
497
100
AcDbEntity
  8
0
  6
Continuous
 62
     0
370
    -2
100
AcDbLine
 10
940.1495123717939
 20
-268.3846448690856
 30
0.0
 11
940.1495123717939
 21
-723.5105463755135
 31
0.0
  0
SOLID
  5
577
330
497
100
AcDbEntity
  8
0
  6
Continuous
 62
     0
100
AcDbTrace
 10
939.7328457051273
 20
-268.3846448690856
 30
0.0
 11
940.5661790384607
 21
-268.3846448690856
 31
0.0
 12
940.1495123717939
 22
-265.8846448690856
 32
0.0
 13
940.1495123717939
 23
-265.8846448690856
 33
0.0
  0
SOLID
  5
578
330
497
100
AcDbEntity
  8
0
  6
Continuous
 62
     0
100
AcDbTrace
 10
939.7328457051273
 20
-723.5105463755135
 30
0.0
 11
940.5661790384607
 21
-723.5105463755135
 31
0.0
 12
940.1495123717939
 22
-726.0105463755133
 32
0.0
 13
940.1495123717939
 23
-726.0105463755133
 33
0.0
  0
MTEXT
  5
579
330
497
100
AcDbEntity
  8
0
  6
Continuous
 62
     0
100
AcDbMText
 10
909.5245123717942
 20
-495.9475956222993
 30
0.0
 40
50.0
 41
0.0
 46
0.0
 71
     5
 72
     1
  1
\A1;500
 11
0.0000000000000001
 21
1.0
 31
0.0
 73
     1
 44
1.0
  0
POINT
  5
57A
330
497
100
AcDbEntity
  8
Defpoints
  6
Continuous
 62
     0
100
AcDbPoint
 10
1052.199607979139
 20
-265.8846448690856
 30
0.0
  0
POINT
  5
57B
330
497
100
AcDbEntity
  8
Defpoints
  6
Continuous
 62
     0
100
AcDbPoint
 10
1052.199607979139
 20
-726.0105463755133
 30
0.0
  0
POINT
  5
57C
330
497
100
AcDbEntity
  8
Defpoints
  6
Continuous
 62
     0
100
AcDbPoint
 10
940.1495123717939
 20
-726.0105463755133
 30
0.0
  0
ENDBLK
  5
4A2
330
497
100
AcDbEntity
  8
0
100
AcDbBlockEnd
  0
BLOCK
  5
4AE
330
4A4
100
AcDbEntity
  8
0
100
AcDbBlockBegin
  2
*D22
 70
     1
 10
0.0
 20
0.0
 30
0.0
  3
*D22
  1

  0
LINE
  5
4E6
330
4A4
100
AcDbEntity
  8
0
  6
Continuous
 62
     0
370
    -2
100
AcDbLine
 10
1176.699710626504
 20
442.3329821759688
 30
0.0
 11
1176.699710626504
 21
259.3157202298662
 31
0.0
  0
LINE
  5
4E7
330
4A4
100
AcDbEntity
  8
0
  6
Continuous
 62
     0
370
    -2
100
AcDbLine
 10
1878.050375940602
 20
442.3329821759688
 30
0.0
 11
1878.050375940602
 21
259.3157202298662
 31
0.0
  0
LINE
  5
4E8
330
4A4
100
AcDbEntity
  8
0
  6
Continuous
 62
     0
370
    -2
100
AcDbLine
 10
1179.199710626504
 20
260.5657202298662
 30
0.0
 11
1875.550375940602
 21
260.5657202298662
 31
0.0
  0
SOLID
  5
4E9
330
4A4
100
AcDbEntity
  8
0
  6
Continuous
 62
     0
100
AcDbTrace
 10
1179.199710626504
 20
260.9823868965329
 30
0.0
 11
1179.199710626504
 21
260.1490535631995
 31
0.0
 12
1176.699710626504
 22
260.5657202298662
 32
0.0
 13
1176.699710626504
 23
260.5657202298662
 33
0.0
  0
SOLID
  5
4EA
330
4A4
100
AcDbEntity
  8
0
  6
Continuous
 62
     0
100
AcDbTrace
 10
1875.550375940602
 20
260.9823868965329
 30
0.0
 11
1875.550375940602
 21
260.1490535631995
 31
0.0
 12
1878.050375940602
 22
260.5657202298662
 32
0.0
 13
1878.050375940602
 23
260.5657202298662
 33
0.0
  0
MTEXT
  5
4EB
330
4A4
100
AcDbEntity
  8
0
  6
Continuous
 62
     0
100
AcDbMText
 10
1527.375043283553
 20
291.1907202298662
 30
0.0
 40
50.0
 41
0.0
 46
0.0
 71
     5
 72
     1
  1
\A1;700
 73
     1
 44
1.0
  0
POINT
  5
4EC
330
4A4
100
AcDbEntity
  8
Defpoints
  6
Continuous
 62
     0
100
AcDbPoint
 10
1176.699710626504
 20
442.9579821759689
 30
0.0
  0
POINT
  5
4ED
330
4A4
100
AcDbEntity
  8
Defpoints
  6
Continuous
 62
     0
100
AcDbPoint
 10
1878.050375940602
 20
442.9579821759689
 30
0.0
  0
POINT
  5
4EE
330
4A4
100
AcDbEntity
  8
Defpoints
  6
Continuous
 62
     0
100
AcDbPoint
 10
1878.050375940602
 20
260.5657202298662
 30
0.0
  0
ENDBLK
  5
4AF
330
4A4
100
AcDbEntity
  8
0
100
AcDbBlockEnd
  0
BLOCK
  5
4FA
330
4F0
100
AcDbEntity
  8
0
100
AcDbBlockBegin
  2
*D23
 70
     1
 10
0.0
 20
0.0
 30
0.0
  3
*D23
  1

  0
LINE
  5
57D
330
4F0
100
AcDbEntity
  8
0
  6
Continuous
 62
     0
370
    -2
100
AcDbLine
 10
1172.549729777922
 20
446.4782482171576
 30
0.0
 11
1172.549729777922
 21
259.3157202298662
 31
0.0
  0
LINE
  5
57E
330
4F0
100
AcDbEntity
  8
0
  6
Continuous
 62
     0
370
    -2
100
AcDbLine
 10
1873.900362844884
 20
446.4782482171576
 30
0.0
 11
1873.900362844884
 21
259.3157202298662
 31
0.0
  0
LINE
  5
57F
330
4F0
100
AcDbEntity
  8
0
  6
Continuous
 62
     0
370
    -2
100
AcDbLine
 10
1175.049729777922
 20
260.5657202298662
 30
0.0
 11
1871.400362844885
 21
260.5657202298662
 31
0.0
  0
SOLID
  5
580
330
4F0
100
AcDbEntity
  8
0
  6
Continuous
 62
     0
100
AcDbTrace
 10
1175.049729777922
 20
260.9823868965329
 30
0.0
 11
1175.049729777922
 21
260.1490535631995
 31
0.0
 12
1172.549729777922
 22
260.5657202298662
 32
0.0
 13
1172.549729777922
 23
260.5657202298662
 33
0.0
  0
SOLID
  5
581
330
4F0
100
AcDbEntity
  8
0
  6
Continuous
 62
     0
100
AcDbTrace
 10
1871.400362844885
 20
260.9823868965329
 30
0.0
 11
1871.400362844885
 21
260.1490535631995
 31
0.0
 12
1873.900362844884
 22
260.5657202298662
 32
0.0
 13
1873.900362844884
 23
260.5657202298662
 33
0.0
  0
MTEXT
  5
582
330
4F0
100
AcDbEntity
  8
0
  6
Continuous
 62
     0
100
AcDbMText
 10
1523.225046311402
 20
291.1907202298662
 30
0.0
 40
50.0
 41
0.0
 46
0.0
 71
     5
 72
     1
  1
\A1;700
 73
     1
 44
1.0
  0
POINT
  5
583
330
4F0
100
AcDbEntity
  8
Defpoints
  6
Continuous
 62
     0
100
AcDbPoint
 10
1172.549729777922
 20
447.1032482171576
 30
0.0
  0
POINT
  5
584
330
4F0
100
AcDbEntity
  8
Defpoints
  6
Continuous
 62
     0
100
AcDbPoint
 10
1873.900362844884
 20
447.1032482171576
 30
0.0
  0
POINT
  5
585
330
4F0
100
AcDbEntity
  8
Defpoints
  6
Continuous
 62
     0
100
AcDbPoint
 10
1873.900362844884
 20
260.5657202298662
 30
0.0
  0
ENDBLK
  5
4FB
330
4F0
100
AcDbEntity
  8
0
100
AcDbBlockEnd
  0
BLOCK
  5
507
330
4FD
100
AcDbEntity
  8
0
100
AcDbBlockBegin
  2
*D24
 70
     1
 10
0.0
 20
0.0
 30
0.0
  3
*D24
  1

  0
LINE
  5
586
330
4FD
100
AcDbEntity
  8
0
  6
Continuous
 62
     0
370
    -2
100
AcDbLine
 10
1873.900362844884
 20
445.8532482171576
 30
0.0
 11
1873.900362844884
 21
259.3157202298662
 31
0.0
  0
LINE
  5
587
330
4FD
100
AcDbEntity
  8
0
  6
Continuous
 62
     0
370
    -2
100
AcDbLine
 10
2575.251028158982
 20
445.8532482171576
 30
0.0
 11
2575.251028158982
 21
259.3157202298662
 31
0.0
  0
LINE
  5
588
330
4FD
100
AcDbEntity
  8
0
  6
Continuous
 62
     0
370
    -2
100
AcDbLine
 10
1876.400362844884
 20
260.5657202298662
 30
0.0
 11
2572.751028158982
 21
260.5657202298662
 31
0.0
  0
SOLID
  5
589
330
4FD
100
AcDbEntity
  8
0
  6
Continuous
 62
     0
100
AcDbTrace
 10
1876.400362844884
 20
260.9823868965329
 30
0.0
 11
1876.400362844884
 21
260.1490535631995
 31
0.0
 12
1873.900362844884
 22
260.5657202298662
 32
0.0
 13
1873.900362844884
 23
260.5657202298662
 33
0.0
  0
SOLID
  5
58A
330
4FD
100
AcDbEntity
  8
0
  6
Continuous
 62
     0
100
AcDbTrace
 10
2572.751028158982
 20
260.9823868965329
 30
0.0
 11
2572.751028158982
 21
260.1490535631995
 31
0.0
 12
2575.251028158982
 22
260.5657202298662
 32
0.0
 13
2575.251028158982
 23
260.5657202298662
 33
0.0
  0
MTEXT
  5
58B
330
4FD
100
AcDbEntity
  8
0
  6
Continuous
 62
     0
100
AcDbMText
 10
2224.575695501934
 20
291.1907202298662
 30
0.0
 40
50.0
 41
0.0
 46
0.0
 71
     5
 72
     1
  1
\A1;700
 73
     1
 44
1.0
  0
POINT
  5
58C
330
4FD
100
AcDbEntity
  8
Defpoints
  6
Continuous
 62
     0
100
AcDbPoint
 10
1873.900362844884
 20
446.4782482171576
 30
0.0
  0
POINT
  5
58D
330
4FD
100
AcDbEntity
  8
Defpoints
  6
Continuous
 62
     0
100
AcDbPoint
 10
2575.251028158982
 20
446.4782482171576
 30
0.0
  0
POINT
  5
58E
330
4FD
100
AcDbEntity
  8
Defpoints
  6
Continuous
 62
     0
100
AcDbPoint
 10
2575.251028158982
 20
260.5657202298662
 30
0.0
  0
ENDBLK
  5
508
330
4FD
100
AcDbEntity
  8
0
100
AcDbBlockEnd
  0
BLOCK
  5
514
330
50A
100
AcDbEntity
  8
0
100
AcDbBlockBegin
  2
*D25
 70
     1
 10
0.0
 20
0.0
 30
0.0
  3
*D25
  1

  0
LINE
  5
58F
330
50A
100
AcDbEntity
  8
0
  6
Continuous
 62
     0
370
    -2
100
AcDbLine
 10
2572.751028158982
 20
259.5240535631995
 30
0.0
 11
2572.751028158982
 21
147.3932008508236
 31
0.0
  0
LINE
  5
590
330
50A
100
AcDbEntity
  8
0
  6
Continuous
 62
     0
370
    -2
100
AcDbLine
 10
4372.202699960744
 20
258.6907202298662
 30
0.0
 11
4372.202699960744
 21
147.3932008508236
 31
0.0
  0
LINE
  5
591
330
50A
100
AcDbEntity
  8
0
  6
Continuous
 62
     0
370
    -2
100
AcDbLine
 10
2575.251028158982
 20
148.6432008508236
 30
0.0
 11
4369.702699960744
 21
148.6432008508236
 31
0.0
  0
SOLID
  5
592
330
50A
100
AcDbEntity
  8
0
  6
Continuous
 62
     0
100
AcDbTrace
 10
2575.251028158982
 20
149.0598675174903
 30
0.0
 11
2575.251028158982
 21
148.226534184157
 31
0.0
 12
2572.751028158982
 22
148.6432008508236
 32
0.0
 13
2572.751028158982
 23
148.6432008508236
 33
0.0
  0
SOLID
  5
593
330
50A
100
AcDbEntity
  8
0
  6
Continuous
 62
     0
100
AcDbTrace
 10
4369.702699960744
 20
149.0598675174903
 30
0.0
 11
4369.702699960744
 21
148.226534184157
 31
0.0
 12
4372.202699960744
 22
148.6432008508236
 32
0.0
 13
4372.202699960744
 23
148.6432008508236
 33
0.0
  0
MTEXT
  5
594
330
50A
100
AcDbEntity
  8
0
  6
Continuous
 62
     0
100
AcDbMText
 10
3472.476864059863
 20
179.2682008508236
 30
0.0
 40
50.0
 41
0.0
 46
0.0
 71
     5
 72
     1
  1
\A1;1800
 73
     1
 44
1.0
  0
POINT
  5
595
330
50A
100
AcDbEntity
  8
Defpoints
  6
Continuous
 62
     0
100
AcDbPoint
 10
2572.751028158982
 20
260.1490535631995
 30
0.0
  0
POINT
  5
596
330
50A
100
AcDbEntity
  8
Defpoints
  6
Continuous
 62
     0
100
AcDbPoint
 10
4372.202699960744
 20
259.3157202298662
 30
0.0
  0
POINT
  5
597
330
50A
100
AcDbEntity
  8
Defpoints
  6
Continuous
 62
     0
100
AcDbPoint
 10
4372.202699960744
 20
148.6432008508236
 30
0.0
  0
ENDBLK
  5
515
330
50A
100
AcDbEntity
  8
0
100
AcDbBlockEnd
  0
BLOCK
  5
521
330
517
100
AcDbEntity
  8
0
100
AcDbBlockBegin
  2
*D26
 70
     1
 10
0.0
 20
0.0
 30
0.0
  3
*D26
  1

  0
LINE
  5
598
330
517
100
AcDbEntity
  8
0
  6
Continuous
 62
     0
370
    -2
100
AcDbLine
 10
999.14163330054
 20
1383.488996764117
 30
0.0
 11
895.5000250239462
 21
1383.488996764117
 31
0.0
  0
LINE
  5
599
330
517
100
AcDbEntity
  8
0
  6
Continuous
 62
     0
370
    -2
100
AcDbLine
 10
999.1416333005398
 20
896.0712565069844
 30
0.0
 11
895.5000250239462
 21
896.0712565069844
 31
0.0
  0
LINE
  5
59A
330
517
100
AcDbEntity
  8
0
  6
Continuous
 62
     0
370
    -2
100
AcDbLine
 10
896.7500250239465
 20
1380.988996764117
 30
0.0
 11
896.7500250239464
 21
898.5712565069844
 31
0.0
  0
SOLID
  5
59B
330
517
100
AcDbEntity
  8
0
  6
Continuous
 62
     0
100
AcDbTrace
 10
896.3333583572799
 20
1380.988996764117
 30
0.0
 11
897.166691690613
 21
1380.988996764117
 31
0.0
 12
896.7500250239465
 22
1383.488996764117
 32
0.0
 13
896.7500250239465
 23
1383.488996764117
 33
0.0
  0
SOLID
  5
59C
330
517
100
AcDbEntity
  8
0
  6
Continuous
 62
     0
100
AcDbTrace
 10
896.3333583572799
 20
898.5712565069844
 30
0.0
 11
897.166691690613
 21
898.5712565069844
 31
0.0
 12
896.7500250239464
 22
896.0712565069844
 32
0.0
 13
896.7500250239464
 23
896.0712565069844
 33
0.0
  0
MTEXT
  5
59D
330
517
100
AcDbEntity
  8
0
  6
Continuous
 62
     0
100
AcDbMText
 10
866.125025023946
 20
1139.780126635551
 30
0.0
 40
50.0
 41
0.0
 46
0.0
 71
     5
 72
     1
  1
\A1;500
 11
0.0000000000000001
 21
1.0
 31
0.0
 73
     1
 44
1.0
  0
POINT
  5
59E
330
517
100
AcDbEntity
  8
Defpoints
  6
Continuous
 62
     0
100
AcDbPoint
 10
999.7666333005399
 20
1383.488996764117
 30
0.0
  0
POINT
  5
59F
330
517
100
AcDbEntity
  8
Defpoints
  6
Continuous
 62
     0
100
AcDbPoint
 10
999.7666333005398
 20
896.0712565069844
 30
0.0
  0
POINT
  5
5A0
330
517
100
AcDbEntity
  8
Defpoints
  6
Continuous
 62
     0
100
AcDbPoint
 10
896.7500250239464
 20
896.0712565069844
 30
0.0
  0
ENDBLK
  5
522
330
517
100
AcDbEntity
  8
0
100
AcDbBlockEnd
  0
BLOCK
  5
52E
330
524
100
AcDbEntity
  8
0
100
AcDbBlockBegin
  2
*D27
 70
     1
 10
0.0
 20
0.0
 30
0.0
  3
*D27
  1

  0
LINE
  5
5A1
330
524
100
AcDbEntity
  8
0
  6
Continuous
 62
     0
370
    -2
100
AcDbLine
 10
1187.613464042581
 20
1995.884182785747
 30
0.0
 11
1187.613464042581
 21
2112.093662079204
 31
0.0
  0
LINE
  5
5A2
330
524
100
AcDbEntity
  8
0
  6
Continuous
 62
     0
370
    -2
100
AcDbLine
 10
8888.003394544259
 20
1995.884182785747
 30
0.0
 11
8888.003394544259
 21
2112.093662079204
 31
0.0
  0
LINE
  5
5A3
330
524
100
AcDbEntity
  8
0
  6
Continuous
 62
     0
370
    -2
100
AcDbLine
 10
1190.113464042581
 20
2110.843662079204
 30
0.0
 11
8885.50339454426
 21
2110.843662079204
 31
0.0
  0
SOLID
  5
5A4
330
524
100
AcDbEntity
  8
0
  6
Continuous
 62
     0
100
AcDbTrace
 10
1190.113464042581
 20
2111.26032874587
 30
0.0
 11
1190.113464042581
 21
2110.426995412537
 31
0.0
 12
1187.613464042581
 22
2110.843662079204
 32
0.0
 13
1187.613464042581
 23
2110.843662079204
 33
0.0
  0
SOLID
  5
5A5
330
524
100
AcDbEntity
  8
0
  6
Continuous
 62
     0
100
AcDbTrace
 10
8885.50339454426
 20
2111.26032874587
 30
0.0
 11
8885.50339454426
 21
2110.426995412537
 31
0.0
 12
8888.003394544259
 22
2110.843662079204
 32
0.0
 13
8888.003394544259
 23
2110.843662079204
 33
0.0
  0
MTEXT
  5
5A6
330
524
100
AcDbEntity
  8
0
  6
Continuous
 62
     0
100
AcDbMText
 10
5037.80842929342
 20
2141.468662079204
 30
0.0
 40
50.0
 41
0.0
 46
0.0
 71
     5
 72
     1
  1
\A1;7700
 73
     1
 44
1.0
  0
POINT
  5
5A7
330
524
100
AcDbEntity
  8
Defpoints
  6
Continuous
 62
     0
100
AcDbPoint
 10
1187.613464042581
 20
1995.259182785747
 30
0.0
  0
POINT
  5
5A8
330
524
100
AcDbEntity
  8
Defpoints
  6
Continuous
 62
     0
100
AcDbPoint
 10
8888.003394544259
 20
1995.259182785747
 30
0.0
  0
POINT
  5
5A9
330
524
100
AcDbEntity
  8
Defpoints
  6
Continuous
 62
     0
100
AcDbPoint
 10
8888.003394544259
 20
2110.843662079204
 30
0.0
  0
ENDBLK
  5
52F
330
524
100
AcDbEntity
  8
0
100
AcDbBlockEnd
  0
ENDSEC
  0
SECTION
  2
ENTITIES
  0
LINE
  5
134
330
1EA
100
AcDbEntity
  8
0
100
AcDbLine
 10
3184.737396206558
 20
609.4037620126092
 30
0.0
 11
3184.737396206558
 21
609.4037620126092
 31
0.0
  0
LINE
  5
138
330
1EA
100
AcDbEntity
  8
0
100
AcDbLine
 10
2033.037491084626
 20
947.3447819701187
 30
0.0
 11
2033.037491084626
 21
947.3447819701187
 31
0.0
  0
LINE
  5
13A
330
1EA
100
AcDbEntity
  8
0
100
AcDbLine
 10
1780.397793960041
 20
947.3447819701187
 30
0.0
 11
1780.397793960041
 21
947.3447819701187
 31
0.0
  0
LINE
  5
145
330
1EA
100
AcDbEntity
  8
0
100
AcDbLine
 10
2581.781804202349
 20
1598.591346113355
 30
0.0
 11
2581.781804202349
 21
657.0197726557015
 31
0.0
  0
LINE
  5
146
330
1EA
100
AcDbEntity
  8
0
100
AcDbLine
 10
2581.781804202349
 20
657.0197726557015
 30
0.0
 11
2581.781804202349
 21
1042.331480289834
 31
0.0
  0
LINE
  5
147
330
1EA
100
AcDbEntity
  8
0
100
AcDbLine
 10
2581.781804202349
 20
1042.331480289834
 30
0.0
 11
1421.812401632835
 21
1042.331480289834
 31
0.0
  0
LINE
  5
150
330
1EA
100
AcDbEntity
  8
0
  6
ACAD_ISO02W100
100
AcDbLine
 10
1171.889255574752
 20
1140.016139195864
 30
0.0
 11
4581.166993027905
 21
1140.016139195864
 31
0.0
  0
LINE
  5
153
330
1EA
100
AcDbEntity
  8
0
  6
Continuous
100
AcDbLine
 10
1421.812401632835
 20
1042.331480289834
 30
0.0
 11
1421.812401632835
 21
1042.331480289834
 31
0.0
  0
LINE
  5
155
330
1EA
100
AcDbEntity
  8
0
  6
Continuous
100
AcDbLine
 10
1171.889255574752
 20
1140.016139195864
 30
0.0
 11
1171.889255574752
 21
1389.654712409393
 31
0.0
  0
LINE
  5
156
330
1EA
100
AcDbEntity
  8
0
  6
Continuous
100
AcDbLine
 10
1171.889255574752
 20
1389.654712409393
 30
0.0
 11
1171.889255574752
 21
1140.016139195864
 31
0.0
  0
LINE
  5
157
330
1EA
100
AcDbEntity
  8
0
  6
Continuous
100
AcDbLine
 10
1171.889255574752
 20
1140.016139195864
 30
0.0
 11
1171.889255574752
 21
890.3775659823351
 31
0.0
  0
LINE
  5
158
330
1EA
100
AcDbEntity
  8
0
  6
Continuous
100
AcDbLine
 10
1421.812401632835
 20
1420.0
 30
0.0
 11
1421.812401632835
 21
860.0
 31
0.0
  0
LINE
  5
159
330
1EA
100
AcDbEntity
  8
0
  6
Continuous
100
AcDbLine
 10
1171.889255574752
 20
1389.654712409393
 30
0.0
 11
2581.781804202349
 21
1598.591346113355
 31
0.0
  0
LINE
  5
15A
330
1EA
100
AcDbEntity
  8
0
  6
Continuous
100
AcDbLine
 10
2581.781804202349
 20
657.0197726557015
 30
0.0
 11
1883.626917735256
 21
730.2832637729234
 31
0.0
  0
LINE
  5
15B
330
1EA
100
AcDbEntity
  8
0
  6
Continuous
100
AcDbLine
 10
1883.626917735256
 20
730.2832637729234
 30
0.0
 11
1171.889255574752
 21
890.3775659823351
 31
0.0
  0
LINE
  5
15C
330
1EA
100
AcDbEntity
  8
0
  6
Continuous
100
AcDbLine
 10
1421.812401632835
 20
860.0
 30
0.0
 11
1421.812401632835
 21
860.0
 31
0.0
  0
LINE
  5
15D
330
1EA
100
AcDbEntity
  8
0
  6
Continuous
100
AcDbLine
 10
1421.812401632835
 20
860.0
 30
0.0
 11
1421.812401632835
 21
834.1612466819146
 31
0.0
  0
LINE
  5
15E
330
1EA
100
AcDbEntity
  8
0
  6
Continuous
100
AcDbLine
 10
1421.812401632835
 20
834.1612466819146
 30
0.0
 11
1421.812401632835
 21
834.1612466819146
 31
0.0
  0
LINE
  5
15F
330
1EA
100
AcDbEntity
  8
0
  6
ACAD_ISO02W100
100
AcDbLine
 10
1171.889255574752
 20
1140.016139195864
 30
0.0
 11
887.3314272380465
 21
1140.016139195864
 31
0.0
  0
LINE
  5
160
330
1EA
100
AcDbEntity
  8
0
  6
Continuous
100
AcDbLine
 10
2581.781804202349
 20
1598.591346113355
 30
0.0
 11
4381.045260673145
 21
1598.591346113355
 31
0.0
  0
LINE
  5
161
330
1EA
100
AcDbEntity
  8
0
  6
Continuous
100
AcDbLine
 10
4381.045260673145
 20
1598.591346113355
 30
0.0
 11
4381.045260673145
 21
658.2450604909881
 31
0.0
  0
LINE
  5
162
330
1EA
100
AcDbEntity
  8
0
  6
Continuous
100
AcDbLine
 10
4381.045260673145
 20
658.2450604909881
 30
0.0
 11
2581.781804202349
 21
658.2450604909884
 31
0.0
  0
LINE
  5
163
330
1EA
100
AcDbEntity
  8
0
  6
Continuous
100
AcDbLine
 10
2581.781804202349
 20
658.2450604909884
 30
0.0
 11
2581.781804202349
 21
658.2450604909884
 31
0.0
  0
LINE
  5
164
330
1EA
100
AcDbEntity
  8
0
  6
Continuous
100
AcDbLine
 10
2581.781804202349
 20
1042.331480289834
 30
0.0
 11
4381.045260673145
 21
1042.331480289834
 31
0.0
  0
LINE
  5
165
330
1EA
100
AcDbEntity
  8
0
  6
ACAD_ISO02W100
100
AcDbLine
 10
4581.166993027905
 20
1140.016139195864
 30
0.0
 11
8699.777872343267
 21
1140.016139195864
 31
0.0
  0
LINE
  5
166
330
1EA
100
AcDbEntity
  8
0
  6
ACAD_ISO02W100
100
AcDbLine
 10
8699.777872343267
 20
1140.016139195864
 30
0.0
 11
8699.777872343267
 21
1140.016139195864
 31
0.0
  0
LINE
  5
167
330
1EA
100
AcDbEntity
  8
0
  6
ACAD_ISO02W100
100
AcDbLine
 10
4381.045260673145
 20
1140.016139195864
 30
0.0
 11
7881.180453167607
 21
1140.016139195864
 31
0.0
  0
LINE
  5
168
330
1EA
100
AcDbEntity
  8
0
  6
ACAD_ISO02W100
100
AcDbLine
 10
7881.180453167607
 20
1140.016139195864
 30
0.0
 11
7881.180453167607
 21
1140.016139195864
 31
0.0
  0
LINE
  5
169
330
1EA
100
AcDbEntity
  8
0
  6
ACAD_ISO02W100
100
AcDbLine
 10
7881.180453167607
 20
1140.016139195864
 30
0.0
 11
7881.180453167607
 21
1243.742223722336
 31
0.0
  0
LINE
  5
16A
330
1EA
100
AcDbEntity
  8
0
  6
ACAD_ISO02W100
100
AcDbLine
 10
7881.180453167607
 20
1243.742223722336
 30
0.0
 11
7881.180453167607
 21
1243.742223722336
 31
0.0
  0
LINE
  5
16B
330
1EA
100
AcDbEntity
  8
0
  6
Continuous
100
AcDbLine
 10
7881.180453167607
 20
1140.016139195864
 30
0.0
 11
7881.180453167607
 21
1392.023500147586
 31
0.0
  0
LINE
  5
16C
330
1EA
100
AcDbEntity
  8
0
  6
Continuous
100
AcDbLine
 10
7881.180453167607
 20
1392.023500147586
 30
0.0
 11
7881.180453167607
 21
1392.023500147586
 31
0.0
  0
LINE
  5
16D
330
1EA
100
AcDbEntity
  8
0
  6
Continuous
100
AcDbLine
 10
7881.180453167607
 20
1392.023500147586
 30
0.0
 11
7881.180453167607
 21
1140.016139195864
 31
0.0
  0
LINE
  5
16E
330
1EA
100
AcDbEntity
  8
0
  6
Continuous
100
AcDbLine
 10
7881.180453167607
 20
1140.016139195864
 30
0.0
 11
7881.180453167607
 21
887.8671611183506
 31
0.0
  0
LINE
  5
16F
330
1EA
100
AcDbEntity
  8
0
  6
Continuous
100
AcDbLine
 10
4381.045260673145
 20
1598.591346113355
 30
0.0
 11
7881.180453167607
 21
1392.023500147586
 31
0.0
  0
LINE
  5
170
330
1EA
100
AcDbEntity
  8
0
  6
Continuous
100
AcDbLine
 10
4381.045260673145
 20
658.2450604909881
 30
0.0
 11
7881.180453167607
 21
887.8671611183506
 31
0.0
  0
LINE
  5
171
330
1EA
100
AcDbEntity
  8
0
  6
Continuous
100
AcDbLine
 10
4581.166993027905
 20
1140.016139195864
 30
0.0
 11
5444.575766742937
 21
1140.016139195864
 31
0.0
  0
LINE
  5
172
330
1EA
100
AcDbEntity
  8
0
  6
Continuous
100
AcDbLine
 10
4381.045260673145
 20
1598.591346113355
 30
0.0
 11
4381.045260673145
 21
1598.591346113355
 31
0.0
  0
LINE
  5
173
330
1EA
100
AcDbEntity
  8
0
  6
Continuous
100
AcDbLine
 10
4381.045260673145
 20
1598.591346113355
 30
0.0
 11
4381.045260673145
 21
1598.591346113355
 31
0.0
  0
LINE
  5
177
330
1EA
100
AcDbEntity
  8
0
  6
Continuous
100
AcDbLine
 10
4381.045260673145
 20
1598.591346113355
 30
0.0
 11
4381.045260673145
 21
1598.591346113355
 31
0.0
  0
LINE
  5
178
330
1EA
100
AcDbEntity
  8
0
  6
Continuous
100
AcDbLine
 10
4381.045260673145
 20
1598.591346113355
 30
0.0
 11
4381.045260673145
 21
1598.591346113355
 31
0.0
  0
LINE
  5
179
330
1EA
100
AcDbEntity
  8
0
  6
Continuous
100
AcDbLine
 10
4381.045260673145
 20
1598.591346113355
 30
0.0
 11
4381.045260673145
 21
1598.591346113355
 31
0.0
  0
LINE
  5
17A
330
1EA
100
AcDbEntity
  8
0
  6
Continuous
100
AcDbLine
 10
4381.045260673145
 20
1598.591346113355
 30
0.0
 11
4381.045260673145
 21
1598.591346113355
 31
0.0
  0
LINE
  5
17B
330
1EA
100
AcDbEntity
  8
0
  6
Continuous
100
AcDbLine
 10
4381.045260673145
 20
1598.591346113355
 30
0.0
 11
4381.045260673145
 21
1598.591346113355
 31
0.0
  0
LINE
  5
17C
330
1EA
100
AcDbEntity
  8
0
  6
Continuous
100
AcDbLine
 10
4381.045260673145
 20
1598.591346113355
 30
0.0
 11
4381.045260673145
 21
1598.591346113355
 31
0.0
  0
LINE
  5
17D
330
1EA
100
AcDbEntity
  8
0
  6
Continuous
100
AcDbLine
 10
4381.045260673145
 20
1598.591346113355
 30
0.0
 11
4381.045260673145
 21
1598.591346113355
 31
0.0
  0
LINE
  5
17E
330
1EA
100
AcDbEntity
  8
0
  6
Continuous
100
AcDbLine
 10
4381.045260673145
 20
1598.591346113355
 30
0.0
 11
4381.045260673145
 21
1598.591346113355
 31
0.0
  0
LINE
  5
17F
330
1EA
100
AcDbEntity
  8
0
  6
Continuous
100
AcDbLine
 10
4381.045260673145
 20
1598.591346113355
 30
0.0
 11
4381.045260673145
 21
1598.591346113355
 31
0.0
  0
LINE
  5
180
330
1EA
100
AcDbEntity
  8
0
  6
Continuous
100
AcDbLine
 10
4381.045260673145
 20
1598.591346113355
 30
0.0
 11
4381.045260673145
 21
1598.591346113355
 31
0.0
  0
LINE
  5
184
330
1EA
100
AcDbEntity
  8
0
  6
Continuous
100
AcDbLine
 10
5444.575766742937
 20
1140.016139195864
 30
0.0
 11
5297.586267102275
 21
1140.016139195864
 31
0.0
  0
LINE
  5
203
330
1EA
100
AcDbEntity
  8
0
  6
Continuous
100
AcDbLine
 10
5564.595327328552
 20
1525.940679230779
 30
0.0
 11
5564.595327328552
 21
741.0094183778485
 31
0.0
  0
LINE
  5
204
330
1EA
100
AcDbEntity
  8
0
  6
Continuous
100
AcDbLine
 10
6625.460491380708
 20
1437.922198875203
 30
0.0
 11
6625.460491380708
 21
796.8949913030789
 31
0.0
  0
LINE
  5
205
330
1EA
100
AcDbEntity
  8
0
  6
Continuous
100
AcDbLine
 10
6625.460491380708
 20
1437.922198875203
 30
0.0
 11
6625.460491380708
 21
1466.132456909817
 31
0.0
  0
LINE
  5
20D
330
1EA
100
AcDbEntity
  8
0
  6
Continuous
100
AcDbLine
 10
4476.469433011469
 20
1451.261037801734
 30
0.0
 11
4476.469433011469
 21
769.1490070504968
 31
0.0
  0
LINE
  5
20E
330
1EA
100
AcDbEntity
  8
0
  6
Continuous
100
AcDbLine
 10
4476.469433011469
 20
769.1490070504968
 30
0.0
 11
5408.368523868656
 21
829.4461961364195
 31
0.0
  0
LINE
  5
20F
330
1EA
100
AcDbEntity
  8
0
  6
Continuous
100
AcDbLine
 10
4574.56409621816
 20
1488.946784213773
 30
0.0
 11
5464.961572749828
 21
1436.186746996926
 31
0.0
  0
LINE
  5
210
330
1EA
100
AcDbEntity
  8
0
  6
Continuous
100
AcDbLine
 10
5464.961572749828
 20
1436.186746996926
 30
0.0
 11
5464.961572749828
 21
912.3548408295716
 31
0.0
  0
LINE
  5
211
330
1EA
100
AcDbEntity
  8
0
  6
Continuous
100
AcDbLine
 10
5464.961572749828
 20
912.3548408295716
 30
0.0
 11
4574.56409621816
 21
1488.946784213773
 31
0.0
  0
LINE
  5
212
330
1EA
100
AcDbEntity
  8
0
  6
Continuous
100
AcDbLine
 10
5408.368523868656
 20
829.4461961364195
 30
0.0
 11
4476.469433011469
 21
1451.261037801734
 31
0.0
  0
LINE
  5
219
330
1EA
100
AcDbEntity
  8
0
  6
Continuous
100
AcDbLine
 10
6449.680861911064
 20
1368.352393108582
 30
0.0
 11
5680.015216543132
 21
1428.649595127848
 31
0.0
  0
LINE
  5
21A
330
1EA
100
AcDbEntity
  8
0
  6
Continuous
100
AcDbLine
 10
5680.015216543132
 20
1428.649595127848
 30
0.0
 11
5680.015216543132
 21
1428.649595127848
 31
0.0
  0
LINE
  5
21B
330
1EA
100
AcDbEntity
  8
0
  6
Continuous
100
AcDbLine
 10
5680.015216543132
 20
1428.649595127848
 30
0.0
 11
5680.015216543132
 21
852.0576517436493
 31
0.0
  0
LINE
  5
21C
330
1EA
100
AcDbEntity
  8
0
  6
Continuous
100
AcDbLine
 10
5680.015216543132
 20
852.0576517436493
 30
0.0
 11
6449.680861911064
 21
1368.352393108582
 31
0.0
  0
LINE
  5
21E
330
1EA
100
AcDbEntity
  8
0
  6
Continuous
100
AcDbLine
 10
6521.365409842164
 20
1300.518052153582
 30
0.0
 11
6521.365409842164
 21
885.9748157544764
 31
0.0
  0
LINE
  5
21F
330
1EA
100
AcDbEntity
  8
0
  6
Continuous
100
AcDbLine
 10
6521.365409842164
 20
885.9748157544764
 30
0.0
 11
5785.655613151224
 21
829.4461961364195
 31
0.0
  0
LINE
  5
220
330
1EA
100
AcDbEntity
  8
0
  6
Continuous
100
AcDbLine
 10
5785.655613151224
 20
829.4461961364195
 30
0.0
 11
6521.365409842164
 21
1300.518052153582
 31
0.0
  0
LINE
  5
221
330
1EA
100
AcDbEntity
  8
0
  6
Continuous
100
AcDbLine
 10
6729.740832723397
 20
1368.381105131955
 30
0.0
 11
7767.280287941535
 21
1308.083903112689
 31
0.0
  0
LINE
  5
222
330
1EA
100
AcDbEntity
  8
0
  6
Continuous
100
AcDbLine
 10
7767.280287941535
 20
1308.083903112689
 30
0.0
 11
7767.280287941535
 21
980.217893807945
 31
0.0
  0
LINE
  5
223
330
1EA
100
AcDbEntity
  8
0
  6
Continuous
100
AcDbLine
 10
7767.280287941535
 20
980.217893807945
 30
0.0
 11
6729.740832723397
 21
1368.381105131955
 31
0.0
  0
LINE
  5
224
330
1EA
100
AcDbEntity
  8
0
  6
Continuous
100
AcDbLine
 10
6718.422216497737
 20
1277.935308569726
 30
0.0
 11
6718.422216497737
 21
889.7720972457173
 31
0.0
  0
LINE
  5
225
330
1EA
100
AcDbEntity
  8
0
  6
Continuous
100
AcDbLine
 10
6718.422216497737
 20
889.7720972457173
 30
0.0
 11
7605.046842452273
 21
953.8378687328496
 31
0.0
  0
LINE
  5
226
330
1EA
100
AcDbEntity
  8
0
  6
Continuous
100
AcDbLine
 10
7605.046842452273
 20
953.8378687328496
 30
0.0
 11
6718.422216497737
 21
1277.935308569726
 31
0.0
  0
LINE
  5
228
330
1EA
100
AcDbEntity
  8
0
  6
Continuous
100
AcDbLine
 10
8875.82413446953
 20
1170.973463762335
 30
0.0
 11
8875.82413446953
 21
1170.973463762335
 31
0.0
  0
LINE
  5
22E
330
1EA
100
AcDbEntity
  8
0
  6
Continuous
100
AcDbLine
 10
7900.119468063687
 20
1114.414489586235
 30
0.0
 11
8866.465467005623
 21
1114.414489586235
 31
0.0
  0
LINE
  5
232
330
1EA
100
AcDbEntity
  8
0
  6
Continuous
100
AcDbLine
 10
7900.119468063687
 20
1166.731326975621
 30
0.0
 11
8875.82413446953
 21
1166.731326975621
 31
0.0
  0
LINE
  5
233
330
1EA
100
AcDbEntity
  8
0
  6
Continuous
100
AcDbLine
 10
8875.82413446953
 20
1166.731326975621
 30
0.0
 11
8875.82413446953
 21
1166.731326975621
 31
0.0
  0
LINE
  5
234
330
1EA
100
AcDbEntity
  8
0
  6
Continuous
100
AcDbLine
 10
8875.82413446953
 20
1166.731326975621
 30
0.0
 11
8875.82413446953
 21
1114.414489586235
 31
0.0
  0
LINE
  5
235
330
1EA
100
AcDbEntity
  8
0
  6
Continuous
100
AcDbLine
 10
8866.465467005623
 20
1114.414489586235
 30
0.0
 11
8875.82413446953
 21
1114.414489586235
 31
0.0
  0
LINE
  5
236
330
1EA
100
AcDbEntity
  8
0
  6
Continuous
100
AcDbLine
 10
7900.119468063687
 20
1166.731326975621
 30
0.0
 11
7881.180453167607
 21
1166.731326975621
 31
0.0
  0
LINE
  5
237
330
1EA
100
AcDbEntity
  8
0
  6
Continuous
100
AcDbLine
 10
7900.119468063687
 20
1114.414489586235
 30
0.0
 11
7881.180453167607
 21
1114.414489586235
 31
0.0
  0
LINE
  5
238
330
1EA
100
AcDbEntity
  8
0
  6
ACAD_ISO02W100
100
AcDbLine
 10
8699.777872343267
 20
1140.016139195864
 30
0.0
 11
9081.209022326049
 21
1140.016139195864
 31
0.0
  0
LINE
  5
23B
330
1EA
100
AcDbEntity
  8
0
  6
Continuous
100
AcDbLine
 10
8875.82413446953
 20
1140.016139195864
 30
0.0
 11
8875.82413446953
 21
1340.684801918654
 31
0.0
  0
LINE
  5
23C
330
1EA
100
AcDbEntity
  8
0
  6
Continuous
100
AcDbLine
 10
8875.82413446953
 20
1340.684801918654
 30
0.0
 11
8875.82413446953
 21
1340.684801918654
 31
0.0
  0
LINE
  5
23D
330
1EA
100
AcDbEntity
  8
0
  6
Continuous
100
AcDbLine
 10
8875.82413446953
 20
1340.684801918654
 30
0.0
 11
7881.180453167607
 21
1392.023500147586
 31
0.0
  0
LINE
  5
23E
330
1EA
100
AcDbEntity
  8
0
  6
Continuous
100
AcDbLine
 10
8875.82413446953
 20
1140.016139195864
 30
0.0
 11
8875.82413446953
 21
939.1530785117863
 31
0.0
  0
LINE
  5
23F
330
1EA
100
AcDbEntity
  8
0
  6
Continuous
100
AcDbLine
 10
8875.82413446953
 20
939.1530785117863
 30
0.0
 11
7881.180453167607
 21
887.8671611183506
 31
0.0
  0
TEXT
  5
389
330
1EA
100
AcDbEntity
  8
0
  6
Continuous
100
AcDbText
 10
1422.475556903504
 20
1571.185016094498
 30
0.0
 40
50.0
  1
1
100
AcDbText
  0
TEXT
  5
38A
330
1EA
100
AcDbEntity
  8
0
  6
Continuous
100
AcDbText
 10
4379.026710180831
 20
1705.76052004791
 30
0.0
 40
50.0
  1
3
100
AcDbText
  0
TEXT
  5
38B
330
1EA
100
AcDbEntity
  8
0
  6
Continuous
100
AcDbText
 10
2582.641201369745
 20
1690.807686275309
 30
0.0
 40
50.0
  1
2
100
AcDbText
  0
TEXT
  5
38C
330
1EA
100
AcDbEntity
  8
0
  6
Continuous
100
AcDbText
 10
5561.647165042329
 20
1616.043517412301
 30
0.0
 40
50.0
  1
4
100
AcDbText
  0
TEXT
  5
38D
330
1EA
100
AcDbEntity
  8
0
  6
Continuous
100
AcDbText
 10
6624.508588132903
 20
1593.614266753399
 30
0.0
 40
50.0
  1
5
100
AcDbText
  0
TEXT
  5
38E
330
1EA
100
AcDbEntity
  8
0
  6
Continuous
100
AcDbText
 10
7881.978453974811
 20
1503.897264117791
 30
0.0
 40
50.0
  1
6
100
AcDbText
  0
TEXT
  5
391
330
1EA
100
AcDbEntity
  8
0
  6
Continuous
100
AcDbText
 10
4753.273700588553
 20
105.8073063795564
 30
0.0
 40
50.0
  1
BALSA 3 mm
100
AcDbText
  0
LINE
  5
392
330
1EA
100
AcDbEntity
  8
0
  6
Continuous
100
AcDbLine
 10
1172.314551405135
 20
-264.745320741602
 30
0.0
 11
1172.314551405135
 21
-728.0150077406123
 31
0.0
  0
LINE
  5
393
330
1EA
100
AcDbEntity
  8
0
  6
Continuous
100
AcDbLine
 10
1172.314551405135
 20
-728.0150077406123
 30
0.0
 11
4381.293812925959
 21
-728.0150077406123
 31
0.0
  0
LINE
  5
394
330
1EA
100
AcDbEntity
  8
0
  6
Continuous
100
AcDbLine
 10
4381.293812925959
 20
-728.0150077406123
 30
0.0
 11
4381.293812925959
 21
-264.745320741602
 31
0.0
  0
LINE
  5
395
330
1EA
100
AcDbEntity
  8
0
  6
Continuous
100
AcDbLine
 10
4381.293812925959
 20
-264.745320741602
 30
0.0
 11
1172.314551405135
 21
-264.7453207416016
 31
0.0
  0
LINE
  5
397
330
1EA
100
AcDbEntity
  8
0
  6
Continuous
100
AcDbLine
 10
8868.85078775632
 20
-596.5465715165591
 30
0.0
 11
8868.85078775632
 21
-396.2137440323095
 31
0.0
  0
LINE
  5
398
330
1EA
100
AcDbEntity
  8
0
  6
Continuous
100
AcDbLine
 10
8868.85078775632
 20
-396.2137440323095
 30
0.0
 11
4381.293812925959
 21
-264.745320741602
 31
0.0
  0
LINE
  5
399
330
1EA
100
AcDbEntity
  8
0
  6
Continuous
100
AcDbLine
 10
8868.85078775632
 20
-596.5465715165591
 30
0.0
 11
4381.293812925959
 21
-728.0150077406123
 31
0.0
  0
LINE
  5
39A
330
1EA
100
AcDbEntity
  8
0
  6
Continuous
100
AcDbLine
 10
1172.314551405135
 20
-728.0150077406123
 30
0.0
 11
1423.016051172835
 21
-728.0150077406123
 31
0.0
  0
LINE
  5
39B
330
1EA
100
AcDbEntity
  8
0
  6
Continuous
100
AcDbLine
 10
1423.016051172835
 20
-728.0150077406123
 30
0.0
 11
1423.016051172835
 21
-264.7453207416016
 31
0.0
  0
LINE
  5
39C
330
1EA
100
AcDbEntity
  8
0
  6
Continuous
100
AcDbLine
 10
1172.314551405135
 20
-728.0150077406123
 30
0.0
 11
2576.242982351392
 21
-728.0150077406123
 31
0.0
  0
LINE
  5
39D
330
1EA
100
AcDbEntity
  8
0
  6
Continuous
100
AcDbLine
 10
2576.242982351392
 20
-728.0150077406123
 30
0.0
 11
2576.242982351392
 21
-264.7453207416017
 31
0.0
  0
LINE
  5
3A2
330
1EA
100
AcDbEntity
  8
0
  6
Continuous
100
AcDbLine
 10
5572.125969069664
 20
-299.6321927858293
 30
0.0
 11
5572.125969069664
 21
-299.6321927858293
 31
0.0
  0
LINE
  5
3A3
330
1EA
100
AcDbEntity
  8
0
  6
Continuous
100
AcDbLine
 10
5572.125969069664
 20
-299.6321927858293
 30
0.0
 11
5572.125969069664
 21
-693.1281322643521
 31
0.0
  0
LINE
  5
3A4
330
1EA
100
AcDbEntity
  8
0
  6
Continuous
100
AcDbLine
 10
6613.147405685926
 20
-414.2253265616018
 30
0.0
 11
6613.147405685926
 21
-330.1301781376344
 31
0.0
  0
LINE
  5
3A5
330
1EA
100
AcDbEntity
  8
0
  6
Continuous
100
AcDbLine
 10
6613.147405685926
 20
-330.1301781376344
 30
0.0
 11
6613.147405685926
 21
-662.6301439122752
 31
0.0
  0
LINE
  5
3A6
330
1EA
100
AcDbEntity
  8
0
  6
Continuous
100
AcDbLine
 10
7870.991564051194
 20
-474.4127244914816
 30
0.0
 11
7870.991564051194
 21
-366.9802480472114
 31
0.0
  0
LINE
  5
3A7
330
1EA
100
AcDbEntity
  8
0
  6
Continuous
100
AcDbLine
 10
7870.991564051194
 20
-366.9802480472114
 30
0.0
 11
7870.991564051194
 21
-625.7800703775335
 31
0.0
  0
LINE
  5
3A8
330
1EA
100
AcDbEntity
  8
0
  6
Continuous
100
AcDbLine
 10
2576.242982351392
 20
-728.0150077406123
 30
0.0
 11
2576.242982351392
 21
-728.0150077406123
 31
0.0
  0
LINE
  5
3A9
330
1EA
100
AcDbEntity
  8
0
  6
Continuous
100
AcDbLine
 10
2576.242982351392
 20
-728.0150077406123
 30
0.0
 11
2576.242982351392
 21
-728.0150077406123
 31
0.0
  0
LINE
  5
3B5
330
1EA
100
AcDbEntity
  8
0
  6
Continuous
100
AcDbLine
 10
1172.314551405135
 20
-699.5260457487018
 30
0.0
 11
4381.293812925959
 21
-699.5260457487018
 31
0.0
  0
LINE
  5
3B6
330
1EA
100
AcDbEntity
  8
0
  6
Continuous
100
AcDbLine
 10
1172.314551405135
 20
-292.5611151188405
 30
0.0
 11
4381.293812925959
 21
-292.5611151188405
 31
0.0
  0
LINE
  5
3B7
330
1EA
100
AcDbEntity
  8
0
  6
Continuous
100
AcDbLine
 10
2576.242982351392
 20
-728.0150077406123
 30
0.0
 11
2576.242982351392
 21
-649.6400303381651
 31
0.0
  0
LINE
  5
3B8
330
1EA
100
AcDbEntity
  8
0
  6
Continuous
100
AcDbLine
 10
2576.242982351392
 20
-649.6400303381651
 30
0.0
 11
4381.293812925959
 21
-649.6400303381651
 31
0.0
  0
LINE
  5
3B9
330
1EA
100
AcDbEntity
  8
0
  6
Continuous
100
AcDbLine
 10
2576.242982351392
 20
-264.7453207416017
 30
0.0
 11
2576.242982351392
 21
-339.8215582586527
 31
0.0
  0
LINE
  5
3BA
330
1EA
100
AcDbEntity
  8
0
  6
Continuous
100
AcDbLine
 10
2576.242982351392
 20
-339.8215582586527
 30
0.0
 11
4381.293812925959
 21
-339.8215582586527
 31
0.0
  0
LINE
  5
3BB
330
1EA
100
AcDbEntity
  8
0
  6
Continuous
100
AcDbLine
 10
4381.293812925959
 20
-292.5611151188405
 30
0.0
 11
7423.162700891374
 21
-384.8515169160346
 31
0.0
  0
LINE
  5
3BE
330
1EA
100
AcDbEntity
  8
0
  6
Continuous
100
AcDbLine
 10
4381.293812925959
 20
-699.5260457487018
 30
0.0
 11
6898.234221506001
 21
-625.7800703775333
 31
0.0
  0
LINE
  5
3BF
330
1EA
100
AcDbEntity
  8
0
  6
Continuous
100
AcDbLine
 10
6898.234221506001
 20
-625.7800703775333
 30
0.0
 11
7870.991564051194
 21
-597.2784265639111
 31
0.0
  0
LINE
  5
3C1
330
1EA
100
AcDbEntity
  8
0
  6
Continuous
100
AcDbLine
 10
7423.162700891374
 20
-384.8515169160346
 30
0.0
 11
8868.85078775632
 21
-428.7137408725132
 31
0.0
  0
LINE
  5
3C2
330
1EA
100
AcDbEntity
  8
0
  6
Continuous
100
AcDbLine
 10
7870.991564051194
 20
-597.2784265639111
 30
0.0
 11
8868.85078775632
 21
-568.0413014081481
 31
0.0
  0
LINE
  5
3C3
330
1EA
100
AcDbEntity
  8
0
  6
Continuous
100
AcDbLine
 10
4381.293812925959
 20
-649.6400303381651
 30
0.0
 11
8868.85078775632
 21
-530.0585011241801
 31
0.0
  0
LINE
  5
3C4
330
1EA
100
AcDbEntity
  8
0
  6
Continuous
100
AcDbLine
 10
4381.293812925959
 20
-339.8215582586527
 30
0.0
 11
8868.85078775632
 21
-474.2489236914698
 31
0.0
  0
LINE
  5
3C5
330
1EA
100
AcDbEntity
  8
0
  6
Continuous
100
AcDbLine
 10
2576.242982351392
 20
-339.8215582586527
 30
0.0
 11
1423.016051172835
 21
-339.8215582586526
 31
0.0
  0
LINE
  5
3C6
330
1EA
100
AcDbEntity
  8
0
  6
Continuous
100
AcDbLine
 10
2576.242982351392
 20
-649.6400303381651
 30
0.0
 11
1423.016051172835
 21
-649.6400303381649
 31
0.0
  0
TEXT
  5
3CA
330
1EA
100
AcDbEntity
  8
0
  6
Continuous
100
AcDbText
 10
3753.309166355816
 20
-625.0344479747639
 30
0.0
 40
50.0
  1
listelli 5x5
100
AcDbText
  0
TEXT
  5
3CB
330
1EA
100
AcDbEntity
  8
0
  6
Continuous
100
AcDbText
 10
2387.75698109969
 20
-808.9402724191604
 30
0.0
 40
50.0
  1
BALSA 3 mm
100
AcDbText
  0
DIMENSION
  5
455
330
1EA
100
AcDbEntity
  8
0
  6
Continuous
100
AcDbDimension
  2
*D16
 10
5566.918733575516
 20
405.808387533727
 30
0.0
 11
4975.543173444467
 21
436.433387533727
 31
0.0
 70
    32
 71
     5
 42
1182.751120262095
 73
     0
 74
     0
 75
     0
  3
Copia di ISO-25
100
AcDbAlignedDimension
 13
4384.167613313421
 23
401.6631085591943
 33
0.0
 14
5566.918733575516
 24
401.6631085591943
 34
0.0
100
AcDbRotatedDimension
  0
DIMENSION
  5
462
330
1EA
100
AcDbEntity
  8
0
  6
Continuous
100
AcDbDimension
  2
*D17
 10
6623.757036349537
 20
404.7261588703039
 30
0.0
 11
6095.337884962526
 21
435.3511588703041
 31
0.0
 70
    32
 71
     5
 42
1056.83830277402
 73
     0
 74
     0
 75
     0
  3
Copia di ISO-25
100
AcDbAlignedDimension
 13
5566.918733575516
 23
526.0214648618366
 33
0.0
 14
6623.757036349537
 24
526.0214648618366
 34
0.0
100
AcDbRotatedDimension
  0
DIMENSION
  5
46F
330
1EA
100
AcDbEntity
  8
0
  6
Continuous
100
AcDbDimension
  2
*D18
 10
7881.17837024971
 20
406.3928255369707
 30
0.0
 11
7253.319430815209
 21
437.0178255369706
 31
0.0
 70
    32
 71
     5
 42
1255.717878869
 73
     0
 74
     0
 75
     0
  3
Copia di ISO-25
100
AcDbAlignedDimension
 13
6625.460491380708
 23
525.3964648618366
 33
0.0
 14
7881.17837024971
 24
541.5459290016151
 34
0.0
100
AcDbRotatedDimension
  0
DIMENSION
  5
47C
330
1EA
100
AcDbEntity
  8
0
  6
Continuous
100
AcDbDimension
  2
*D19
 10
8874.471818517104
 20
405.808387533727
 30
0.0
 11
8377.825094383407
 21
436.433387533727
 31
0.0
 70
    32
 71
     5
 42
993.2934482673957
 73
     0
 74
     0
 75
     0
  3
Copia di ISO-25
100
AcDbAlignedDimension
 13
7881.17837024971
 23
540.9209290016151
 33
0.0
 14
8874.471818517104
 24
540.9209290016151
 34
0.0
100
AcDbRotatedDimension
  0
DIMENSION
  5
489
330
1EA
100
AcDbEntity
  8
0
  6
Continuous
100
AcDbDimension
  2
*D20
 10
9115.172029867531
 20
-597.3490079031288
 30
0.0
 11
9084.547029867533
 21
-497.8623254476827
 31
0.0
 70
    32
 71
     5
 42
198.9733649108893
 73
     0
 74
     0
 75
     0
  3
Copia di ISO-25
100
AcDbAlignedDimension
 13
8998.971921164466
 23
-398.3756429922396
 33
0.0
 14
8998.971921164466
 24
-597.3490079031288
 34
0.0
 50
90.0
100
AcDbRotatedDimension
  0
DIMENSION
  5
496
330
1EA
100
AcDbEntity
  8
0
  6
Continuous
100
AcDbDimension
  2
*D21
 10
940.1495123717939
 20
-726.0105463755133
 30
0.0
 11
909.5245123717942
 21
-495.9475956222993
 31
0.0
 70
    32
 71
     5
 42
460.1259015064278
 73
     0
 74
     0
 75
     0
  3
Copia di ISO-25
100
AcDbAlignedDimension
 13
1052.199607979139
 23
-265.8846448690856
 33
0.0
 14
1052.199607979139
 24
-726.0105463755133
 34
0.0
 50
90.0
100
AcDbRotatedDimension
  0
DIMENSION
  5
4EF
330
1EA
100
AcDbEntity
  8
0
  6
Continuous
100
AcDbDimension
  2
*D23
 10
1873.900362844884
 20
260.5657202298662
 30
0.0
 11
1523.225046311402
 21
291.1907202298662
 31
0.0
 70
    32
 71
     5
 42
701.3506330669624
 73
     0
 74
     0
 75
     0
  3
Copia di ISO-25
100
AcDbAlignedDimension
 13
1172.549729777922
 23
447.1032482171576
 33
0.0
 14
1873.900362844884
 24
447.1032482171576
 34
0.0
100
AcDbRotatedDimension
  0
DIMENSION
  5
4FC
330
1EA
100
AcDbEntity
  8
0
  6
Continuous
100
AcDbDimension
  2
*D24
 10
2575.251028158982
 20
260.5657202298662
 30
0.0
 11
2224.575695501934
 21
291.1907202298662
 31
0.0
 70
    32
 71
     5
 42
701.3506653140974
 73
     0
 74
     0
 75
     0
  3
Copia di ISO-25
100
AcDbAlignedDimension
 13
1873.900362844884
 23
446.4782482171576
 33
0.0
 14
2575.251028158982
 24
446.4782482171576
 34
0.0
100
AcDbRotatedDimension
  0
DIMENSION
  5
509
330
1EA
100
AcDbEntity
  8
0
  6
Continuous
100
AcDbDimension
  2
*D25
 10
4372.202699960744
 20
148.6432008508236
 30
0.0
 11
3472.476864059863
 21
179.2682008508236
 31
0.0
 70
    32
 71
     5
 42
1799.451671801762
 73
     0
 74
     0
 75
     0
  3
Copia di ISO-25
100
AcDbAlignedDimension
 13
2572.751028158982
 23
260.1490535631995
 33
0.0
 14
4372.202699960744
 24
259.3157202298662
 34
0.0
100
AcDbRotatedDimension
  0
DIMENSION
  5
516
330
1EA
100
AcDbEntity
  8
0
  6
Continuous
100
AcDbDimension
  2
*D26
 10
896.7500250239464
 20
896.0712565069844
 30
0.0
 11
866.125025023946
 21
1139.780126635551
 31
0.0
 70
    32
 71
     5
 42
487.4177402571331
 73
     0
 74
     0
 75
     0
  3
Copia di ISO-25
100
AcDbAlignedDimension
 13
999.7666333005399
 23
1383.488996764117
 33
0.0
 14
999.7666333005398
 24
896.0712565069844
 34
0.0
 50
90.0
100
AcDbRotatedDimension
  0
DIMENSION
  5
523
330
1EA
100
AcDbEntity
  8
0
  6
Continuous
100
AcDbDimension
  2
*D27
 10
8888.003394544259
 20
2110.843662079204
 30
0.0
 11
5037.80842929342
 21
2141.468662079204
 31
0.0
 70
    32
 71
     5
 42
7700.389930501678
 73
     0
 74
     0
 75
     0
  3
Copia di ISO-25
100
AcDbAlignedDimension
 13
1187.613464042581
 23
1995.259182785747
 33
0.0
 14
8888.003394544259
 24
1995.259182785747
 34
0.0
100
AcDbRotatedDimension
  0
TEXT
  5
5CB
330
1EA
100
AcDbEntity
  8
0
  6
Continuous
100
AcDbText
 10
3772.877818766217
 20
-418.2538342076752
 30
0.0
 40
50.0
  1
listelli 5x5
100
AcDbText
  0
ENDSEC
  0
SECTION
  2
OBJECTS
  0
DICTIONARY
  5
1C0
330
0
100
AcDbDictionary
281
     1
  3
ACAD_COLOR
350
1E3
  3
ACAD_GROUP
350
1C1
  3
ACAD_LAYOUT
350
1E2
  3
ACAD_MATERIAL
350
1C4
  3
ACAD_MLINESTYLE
350
1DF
  3
ACAD_PLOTSETTINGS
350
1E1
  3
ACAD_PLOTSTYLENAME
350
1C2
  3
ACAD_TABLESTYLE
350
1E4
  3
ACAD_VISUALSTYLE
350
1C8
  3
AcDbVariableDictionary
350
207
  0
DICTIONARY
  5
3EF
330
1EA
100
AcDbDictionary
280
     1
281
     1
  3
ACAD_SORTENTS
360
3F0
  0
DICTIONARY
  5
1E3
102
{ACAD_REACTORS
330
1C0
102
}
330
1C0
100
AcDbDictionary
281
     1
  0
DICTIONARY
  5
1C1
102
{ACAD_REACTORS
330
1C0
102
}
330
1C0
100
AcDbDictionary
281
     1
  0
DICTIONARY
  5
1E2
102
{ACAD_REACTORS
330
1C0
102
}
330
1C0
100
AcDbDictionary
281
     1
  3
Layout1
350
1E9
  3
Model
350
1ED
  0
DICTIONARY
  5
1C4
102
{ACAD_REACTORS
330
1C0
102
}
330
1C0
100
AcDbDictionary
281
     1
  3
ByBlock
350
1C6
  3
ByLayer
350
1C5
  3
Global
350
1C7
  0
DICTIONARY
  5
1DF
102
{ACAD_REACTORS
330
1C0
102
}
330
1C0
100
AcDbDictionary
281
     1
  3
Standard
350
1E0
  0
DICTIONARY
  5
1E1
102
{ACAD_REACTORS
330
1C0
102
}
330
1C0
100
AcDbDictionary
281
     1
  0
ACDBDICTIONARYWDFLT
  5
1C2
102
{ACAD_REACTORS
330
1C0
102
}
330
1C0
100
AcDbDictionary
281
     1
  3
Normal
350
1C3
100
AcDbDictionaryWithDefault
340
1C3
  0
DICTIONARY
  5
1E4
102
{ACAD_REACTORS
330
1C0
102
}
330
1C0
100
AcDbDictionary
281
     1
  3
Standard
350
1E5
  0
DICTIONARY
  5
1C8
102
{ACAD_REACTORS
330
1C0
102
}
330
1C0
100
AcDbDictionary
281
     1
  3
2dWireframe
350
1CE
  3
3D Hidden
350
1D0
  3
3dWireframe
350
1CF
  3
Basic
350
1CD
  3
Brighten
350
1D4
  3
ColorChange
350
1D8
  3
Conceptual
350
1D1
  3
Dim
350
1D3
  3
Facepattern
350
1D7
  3
Flat
350
1C9
  3
FlatWithEdges
350
1CA
  3
Gouraud
350
1CB
  3
GouraudWithEdges
350
1CC
  3
Linepattern
350
1D6
  3
Realistic
350
1D2
  3
Thicken
350
1D5
  0
DICTIONARY
  5
207
102
{ACAD_REACTORS
330
1C0
102
}
330
1C0
100
AcDbDictionary
281
     1
  3
CTABLESTYLE
350
208
  0
SORTENTSTABLE
  5
3F0
102
{ACAD_REACTORS
330
3EF
102
}
330
3EF
100
AcDbSortentsTable
330
1EA
331
21C
  5
21E
331
3A3
  5
3A9
331
165
  5
166
331
16D
  5
16E
331
224
  5
225
331
3BB
  5
3C4
331
17D
  5
17E
331
234
  5
235
331
3C3
  5
3C9
331
23C
  5
23D
331
3CB
  5
402
331
146
  5
147
331
205
  5
20D
331
20D
  5
20E
331
394
  5
395
331
156
  5
157
331
15E
  5
15F
331
39C
  5
3A6
331
3A4
  5
3B5
331
166
  5
167
331
16E
  5
16F
331
225
  5
226
331
17E
  5
17F
331
235
  5
236
331
3C4
  5
3CA
331
147
  5
150
331
23D
  5
23E
331
395
  5
397
331
157
  5
158
331
20E
  5
20F
331
39D
  5
3A7
331
15F
  5
160
331
21E
  5
21F
331
3A5
  5
3B6
331
167
  5
168
331
16F
  5
170
331
226
  5
228
331
3B5
  5
3BB
331
177
  5
178
331
138
  5
13A
331
17F
  5
180
331
22E
  5
232
331
236
  5
237
331
3C5
  5
3CB
331
23E
  5
23F
331
150
  5
153
331
20F
  5
210
331
389
  5
38A
331
158
  5
159
331
160
  5
161
331
3A6
  5
3B7
331
168
  5
169
331
21F
  5
220
331
170
  5
171
331
3B6
  5
3BE
331
178
  5
179
331
180
  5
184
331
3BE
  5
3C5
331
3C6
  5
3E9
331
237
  5
238
331
23F
  5
2FA
331
397
  5
398
331
38A
  5
38B
331
159
  5
15A
331
210
  5
211
331
161
  5
162
331
220
  5
221
331
3A7
  5
3B8
331
169
  5
16A
331
171
  5
172
331
3B7
  5
3BF
331
179
  5
17A
331
228
  5
22E
331
13A
  5
145
331
3BF
  5
3C6
331
238
  5
23B
331
38B
  5
38C
331
211
  5
212
331
398
  5
399
331
15A
  5
15B
331
162
  5
163
331
219
  5
21A
331
3A8
  5
3B9
331
16A
  5
16B
331
221
  5
222
331
172
  5
173
331
3B8
  5
3C1
331
17A
  5
17B
331
153
  5
155
331
391
  5
392
331
38C
  5
38D
331
399
  5
39A
331
15B
  5
15C
331
212
  5
219
331
21A
  5
21B
331
163
  5
164
331
222
  5
223
331
3A9
  5
3BA
331
16B
  5
16C
331
173
  5
177
331
3B9
  5
3C2
331
134
  5
138
331
17B
  5
17C
331
232
  5
233
331
3C1
  5
3C7
331
203
  5
204
331
392
  5
393
331
38D
  5
38E
331
15C
  5
15D
331
39A
  5
3A2
331
164
  5
165
331
21B
  5
21C
331
3A2
  5
3A8
331
16C
  5
16D
331
223
  5
224
331
3BA
  5
3C3
331
17C
  5
17D
331
184
  5
203
331
233
  5
234
331
3C2
  5
3C8
331
3CA
  5
401
331
145
  5
146
331
204
  5
205
331
23B
  5
23C
331
393
  5
394
331
155
  5
156
331
38E
  5
391
331
39B
  5
3A5
331
15D
  5
15E
  0
LAYOUT
  5
1E9
102
{ACAD_REACTORS
330
1E2
102
}
330
1E2
100
AcDbPlotSettings
  1

  2
\\PC-PAOLO\HP DeskJet 970Cxi
  4

  6

 40
0.0
 41
0.0
 42
0.0
 43
0.0
 44
0.0
 45
0.0
 46
0.0
 47
0.0
 48
0.0
 49
0.0
140
0.0
141
0.0
142
1.0
143
1.0
 70
   688
 72
     0
 73
     0
 74
     5
  7

 75
    16
147
1.0
 76
     0
 77
     2
 78
   300
148
0.0
149
0.0
100
AcDbLayout
  1
Layout1
 70
     1
 71
     1
 10
0.0
 20
0.0
 11
12.0
 21
9.0
 12
0.0
 22
0.0
 32
0.0
 14
0.0
 24
0.0
 34
0.0
 15
0.0
 25
0.0
 35
0.0
146
0.0
 13
0.0
 23
0.0
 33
0.0
 16
1.0
 26
0.0
 36
0.0
 17
0.0
 27
1.0
 37
0.0
 76
     0
330
1E6
  0
LAYOUT
  5
1ED
102
{ACAD_REACTORS
330
1E2
102
}
330
1E2
100
AcDbPlotSettings
  1

  2
\\PC-PAOLO\HP DeskJet 970Cxi
  4

  6

 40
0.0
 41
0.0
 42
0.0
 43
0.0
 44
0.0
 45
0.0
 46
0.0
 47
0.0
 48
0.0
 49
0.0
140
0.0
141
0.0
142
1.0
143
1.0
 70
  1712
 72
     0
 73
     0
 74
     0
  7

 75
     0
147
1.0
 76
     0
 77
     2
 78
   300
148
0.0
149
0.0
100
AcDbLayout
  1
Model
 70
     1
 71
     0
 10
0.0
 20
0.0
 11
12.0
 21
9.0
 12
0.0
 22
0.0
 32
0.0
 14
0.0
 24
0.0
 34
0.0
 15
0.0
 25
0.0
 35
0.0
146
0.0
 13
0.0
 23
0.0
 33
0.0
 16
1.0
 26
0.0
 36
0.0
 17
0.0
 27
1.0
 37
0.0
 76
     0
330
1EA
331
1EE
  0
MATERIAL
  5
1C6
102
{ACAD_REACTORS
330
1C4
102
}
330
1C4
100
AcDbMaterial
  1
ByBlock
  0
MATERIAL
  5
1C5
102
{ACAD_REACTORS
330
1C4
102
}
330
1C4
100
AcDbMaterial
  1
ByLayer
  0
MATERIAL
  5
1C7
102
{ACAD_REACTORS
330
1C4
102
}
330
1C4
100
AcDbMaterial
  1
Global
  0
MLINESTYLE
  5
1E0
102
{ACAD_REACTORS
330
1DF
102
}
330
1DF
100
AcDbMlineStyle
  2
STANDARD
 70
     0
  3

 62
   256
 51
90.0
 52
90.0
 71
     2
 49
0.5
 62
   256
  6
BYLAYER
 49
-0.5
 62
   256
  6
BYLAYER
  0
ACDBPLACEHOLDER
  5
1C3
102
{ACAD_REACTORS
330
1C2
102
}
330
1C2
  0
TABLESTYLE
  5
1E5
102
{ACAD_REACTORS
330
1E4
102
}
330
1E4
100
AcDbTableStyle
  3
Standard
 70
     0
 71
     0
 40
0.06
 41
0.06
280
     0
281
     0
  7
STANDARD
140
0.18
170
     2
 62
     0
 63
     7
283
     0
 90
      512
 91
        0
  1

274
    -2
284
     1
 64
     0
275
    -2
285
     1
 65
     0
276
    -2
286
     1
 66
     0
277
    -2
287
     1
 67
     0
278
    -2
288
     1
 68
     0
279
    -2
289
     1
 69
     0
  7
STANDARD
140
0.25
170
     5
 62
     0
 63
     7
283
     0
 90
      512
 91
        0
  1

274
    -2
284
     1
 64
     0
275
    -2
285
     1
 65
     0
276
    -2
286
     1
 66
     0
277
    -2
287
     1
 67
     0
278
    -2
288
     1
 68
     0
279
    -2
289
     1
 69
     0
  7
STANDARD
140
0.18
170
     5
 62
     0
 63
     7
283
     0
 90
      512
 91
        0
  1

274
    -2
284
     1
 64
     0
275
    -2
285
     1
 65
     0
276
    -2
286
     1
 66
     0
277
    -2
287
     1
 67
     0
278
    -2
288
     1
 68
     0
279
    -2
289
     1
 69
     0
  0
VISUALSTYLE
  5
1CE
102
{ACAD_REACTORS
330
1C8
102
}
330
1C8
100
AcDbVisualStyle
  2
2dWireframe
 70
     4
 71
     0
 72
     2
 73
     0
 90
        0
 40
-0.6
 41
-30.0
 62
     5
 63
     7
421
 16777215
 74
     1
 91
        4
 64
     7
 65
   257
 75
     1
175
     1
 42
1.0
 92
        0
 66
   257
 43
1.0
 76
     1
 77
     6
 78
     2
 67
     7
 79
     5
170
     0
171
     0
290
     0
174
     0
 93
        1
 44
0.0
173
     0
291
     0
 45
0.0
  0
VISUALSTYLE
  5
1D0
102
{ACAD_REACTORS
330
1C8
102
}
330
1C8
100
AcDbVisualStyle
  2
3D Hidden
 70
     6
 71
     1
 72
     2
 73
     2
 90
        0
 40
-0.6
 41
-30.0
 62
     5
 63
     7
421
 16777215
 74
     2
 91
        2
 64
     7
 65
   257
 75
     2
175
     1
 42
40.0
 92
        0
 66
   257
 43
1.0
 76
     1
 77
     6
 78
     2
 67
     7
 79
     3
170
     0
171
     0
290
     0
174
     0
 93
        1
 44
0.0
173
     0
291
     0
 45
0.0
  0
VISUALSTYLE
  5
1CF
102
{ACAD_REACTORS
330
1C8
102
}
330
1C8
100
AcDbVisualStyle
  2
3dWireframe
 70
     5
 71
     0
 72
     2
 73
     0
 90
        0
 40
-0.6
 41
-30.0
 62
     5
 63
     7
421
 16777215
 74
     1
 91
        4
 64
     7
 65
   257
 75
     1
175
     1
 42
1.0
 92
        0
 66
   257
 43
1.0
 76
     1
 77
     6
 78
     2
 67
     7
 79
     5
170
     0
171
     0
290
     0
174
     0
 93
        1
 44
0.0
173
     0
291
     0
 45
0.0
  0
VISUALSTYLE
  5
1CD
102
{ACAD_REACTORS
330
1C8
102
}
330
1C8
100
AcDbVisualStyle
  2
Basic
 70
     7
 71
     1
 72
     0
 73
     1
 90
        0
 40
-0.6
 41
-30.0
 62
     5
 63
     7
421
 16777215
 74
     0
 91
        4
 64
     7
 65
   257
 75
     1
175
     1
 42
1.0
 92
        8
 66
     7
 43
1.0
 76
     1
 77
     6
 78
     2
 67
     7
 79
     5
170
     0
171
     0
290
     0
174
     0
 93
        1
 44
0.0
173
     0
291
     1
 45
0.0
  0
VISUALSTYLE
  5
1D4
102
{ACAD_REACTORS
330
1C8
102
}
330
1C8
100
AcDbVisualStyle
  2
Brighten
 70
    12
 71
     2
 72
     2
 73
     0
 90
        0
 40
-0.6
 41
-30.0
 62
     5
 63
     7
421
 16777215
 74
     1
 91
        4
 64
     7
 65
   257
 75
     1
175
     1
 42
1.0
 92
        8
 66
     7
 43
1.0
 76
     1
 77
     6
 78
     2
 67
     7
 79
     5
170
     0
171
     0
290
     0
174
     0
 93
        1
 44
50.0
173
     0
291
     1
 45
0.0
  0
VISUALSTYLE
  5
1D8
102
{ACAD_REACTORS
330
1C8
102
}
330
1C8
100
AcDbVisualStyle
  2
ColorChange
 70
    16
 71
     2
 72
     2
 73
     3
 90
        0
 40
-0.6
 41
-30.0
 62
     5
 63
     8
421
  8421504
 74
     1
 91
        4
 64
     7
 65
   257
 75
     1
175
     1
 42
1.0
 92
        8
 66
     8
424
  8421504
 43
1.0
 76
     1
 77
     6
 78
     2
 67
     7
 79
     5
170
     0
171
     0
290
     0
174
     0
 93
        1
 44
0.0
173
     0
291
     1
 45
0.0
  0
VISUALSTYLE
  5
1D1
102
{ACAD_REACTORS
330
1C8
102
}
330
1C8
100
AcDbVisualStyle
  2
Conceptual
 70
     9
 71
     3
 72
     2
 73
     0
 90
        0
 40
-0.6
 41
-30.0
 62
     5
 63
     7
421
 16777215
 74
     2
 91
        2
 64
     7
 65
   257
 75
     1
175
     1
 42
40.0
 92
        8
 66
     7
 43
1.0
 76
     1
 77
     6
 78
     2
 67
     7
 79
     3
170
     0
171
     0
290
     0
174
     0
 93
        1
 44
0.0
173
     0
291
     0
 45
0.0
  0
VISUALSTYLE
  5
1D3
102
{ACAD_REACTORS
330
1C8
102
}
330
1C8
100
AcDbVisualStyle
  2
Dim
 70
    11
 71
     2
 72
     2
 73
     0
 90
        0
 40
-0.6
 41
-30.0
 62
     5
 63
     7
421
 16777215
 74
     1
 91
        4
 64
     7
 65
   257
 75
     1
175
     1
 42
1.0
 92
        8
 66
     7
 43
1.0
 76
     1
 77
     6
 78
     2
 67
     7
 79
     5
170
     0
171
     0
290
     0
174
     0
 93
        1
 44
-50.0
173
     0
291
     1
 45
0.0
  0
VISUALSTYLE
  5
1D7
102
{ACAD_REACTORS
330
1C8
102
}
330
1C8
100
AcDbVisualStyle
  2
Facepattern
 70
    15
 71
     2
 72
     2
 73
     0
 90
        0
 40
-0.6
 41
-30.0
 62
     5
 63
     7
421
 16777215
 74
     1
 91
        4
 64
     7
 65
   257
 75
     1
175
     1
 42
1.0
 92
        8
 66
     7
 43
1.0
 76
     1
 77
     6
 78
     2
 67
     7
 79
     5
170
     0
171
     0
290
     0
174
     0
 93
        1
 44
0.0
173
     0
291
     1
 45
0.0
  0
VISUALSTYLE
  5
1C9
102
{ACAD_REACTORS
330
1C8
102
}
330
1C8
100
AcDbVisualStyle
  2
Flat
 70
     0
 71
     2
 72
     1
 73
     1
 90
        2
 40
-0.6
 41
30.0
 62
     5
 63
     7
421
 16777215
 74
     0
 91
        4
 64
     7
 65
   257
 75
     1
175
     1
 42
1.0
 92
        8
 66
     7
 43
1.0
 76
     1
 77
     6
 78
     2
 67
     7
 79
     5
170
     0
171
     0
290
     0
174
     0
 93
       13
 44
0.0
173
     0
291
     1
 45
0.0
  0
VISUALSTYLE
  5
1CA
102
{ACAD_REACTORS
330
1C8
102
}
330
1C8
100
AcDbVisualStyle
  2
FlatWithEdges
 70
     1
 71
     2
 72
     1
 73
     1
 90
        2
 40
-0.6
 41
30.0
 62
     5
 63
     7
421
 16777215
 74
     1
 91
        4
 64
     7
 65
   257
 75
     1
175
     1
 42
1.0
 92
        0
 66
   257
 43
1.0
 76
     1
 77
     6
 78
     2
 67
     7
 79
     5
170
     0
171
     0
290
     0
174
     0
 93
       13
 44
0.0
173
     0
291
     1
 45
0.0
  0
VISUALSTYLE
  5
1CB
102
{ACAD_REACTORS
330
1C8
102
}
330
1C8
100
AcDbVisualStyle
  2
Gouraud
 70
     2
 71
     2
 72
     2
 73
     1
 90
        2
 40
-0.6
 41
30.0
 62
     5
 63
     7
421
 16777215
 74
     0
 91
        4
 64
     7
 65
   257
 75
     1
175
     1
 42
1.0
 92
        0
 66
     7
 43
1.0
 76
     1
 77
     6
 78
     2
 67
     7
 79
     5
170
     0
171
     0
290
     0
174
     0
 93
       13
 44
0.0
173
     0
291
     1
 45
0.0
  0
VISUALSTYLE
  5
1CC
102
{ACAD_REACTORS
330
1C8
102
}
330
1C8
100
AcDbVisualStyle
  2
GouraudWithEdges
 70
     3
 71
     2
 72
     2
 73
     1
 90
        2
 40
-0.6
 41
30.0
 62
     5
 63
     7
421
 16777215
 74
     1
 91
        4
 64
     7
 65
   257
 75
     1
175
     1
 42
1.0
 92
        0
 66
   257
 43
1.0
 76
     1
 77
     6
 78
     2
 67
     7
 79
     5
170
     0
171
     0
290
     0
174
     0
 93
       13
 44
0.0
173
     0
291
     1
 45
0.0
  0
VISUALSTYLE
  5
1D6
102
{ACAD_REACTORS
330
1C8
102
}
330
1C8
100
AcDbVisualStyle
  2
Linepattern
 70
    14
 71
     2
 72
     2
 73
     0
 90
        0
 40
-0.6
 41
-30.0
 62
     5
 63
     7
421
 16777215
 74
     1
 91
        4
 64
     7
 65
   257
 75
     7
175
     7
 42
1.0
 92
        8
 66
     7
 43
1.0
 76
     1
 77
     6
 78
     2
 67
     7
 79
     5
170
     0
171
     0
290
     0
174
     0
 93
        1
 44
0.0
173
     0
291
     1
 45
0.0
  0
VISUALSTYLE
  5
1D2
102
{ACAD_REACTORS
330
1C8
102
}
330
1C8
100
AcDbVisualStyle
  2
Realistic
 70
     8
 71
     2
 72
     2
 73
     0
 90
        0
 40
-0.6
 41
-30.0
 62
     5
 63
     7
421
 16777215
 74
     1
 91
        0
 64
     7
 65
   257
 75
     1
175
     1
 42
1.0
 92
        8
 66
     8
424
  7895160
 43
1.0
 76
     1
 77
     6
 78
     2
 67
     7
 79
     5
170
     0
171
     0
290
     0
174
     0
 93
       13
 44
0.0
173
     0
291
     0
 45
0.0
  0
VISUALSTYLE
  5
1D5
102
{ACAD_REACTORS
330
1C8
102
}
330
1C8
100
AcDbVisualStyle
  2
Thicken
 70
    13
 71
     2
 72
     2
 73
     0
 90
        0
 40
-0.6
 41
-30.0
 62
     5
 63
     7
421
 16777215
 74
     1
 91
        4
 64
     7
 65
   257
 75
     1
175
     1
 42
1.0
 92
       12
 66
     7
 43
1.0
 76
     1
 77
     6
 78
     2
 67
     7
 79
     5
170
     0
171
     0
290
     0
174
     0
 93
        1
 44
0.0
173
     0
291
     1
 45
0.0
  0
DICTIONARYVAR
  5
208
102
{ACAD_REACTORS
330
207
102
}
330
207
100
DictionaryVariables
280
     0
  1
STANDARD
  0
ENDSEC
  0
EOF
