  0
SECTION
  2
HEADER
  9
$ACADVER
  1
AC1021
  9
$ACADMAINTVER
 70
     1
  9
$DWGCODEPAGE
  3
ANSI_1252
  9
$LASTSAVEDBY
  1
Paolo
  9
$INSBASE
 10
0.0
 20
0.0
 30
0.0
  9
$EXTMIN
 10
-58.70937979433006
 20
-36.65462260210143
 30
0.0
  9
$EXTMAX
 10
490.1353714489216
 20
243.6012122250338
 30
0.0
  9
$LIMMIN
 10
-9.184627
 20
4.296982999999999
  9
$LIMMAX
 10
44.815373
 20
28.296983
  9
$ORTHOMODE
 70
     0
  9
$REGENMODE
 70
     1
  9
$FILLMODE
 70
     1
  9
$QTEXTMODE
 70
     0
  9
$MIRRTEXT
 70
     0
  9
$LTSCALE
 40
0.4400000000000001
  9
$ATTMODE
 70
     1
  9
$TEXTSIZE
 40
4.0
  9
$TRACEWID
 40
0.05
  9
$TEXTSTYLE
  7
STANDARD
  9
$CLAYER
  8
LAYER01
  9
$CELTYPE
  6
CONTINUOUS
  9
$CECOLOR
 62
     7
  9
$CELTSCALE
 40
1.0
  9
$DISPSILH
 70
     0
  9
$DIMSCALE
 40
1.0
  9
$DIMASZ
 40
0.18
  9
$DIMEXO
 40
0.0625
  9
$DIMDLI
 40
0.38
  9
$DIMRND
 40
0.0
  9
$DIMDLE
 40
0.0
  9
$DIMEXE
 40
0.18
  9
$DIMTP
 40
0.0
  9
$DIMTM
 40
0.0
  9
$DIMTXT
 40
0.18
  9
$DIMCEN
 40
0.09
  9
$DIMTSZ
 40
0.0
  9
$DIMTOL
 70
     0
  9
$DIMLIM
 70
     0
  9
$DIMTIH
 70
     1
  9
$DIMTOH
 70
     1
  9
$DIMSE1
 70
     0
  9
$DIMSE2
 70
     0
  9
$DIMTAD
 70
     0
  9
$DIMZIN
 70
     0
  9
$DIMBLK
  1

  9
$DIMASO
 70
     1
  9
$DIMSHO
 70
     1
  9
$DIMPOST
  1

  9
$DIMAPOST
  1

  9
$DIMALT
 70
     0
  9
$DIMALTD
 70
     2
  9
$DIMALTF
 40
25.4
  9
$DIMLFAC
 40
1.0
  9
$DIMTOFL
 70
     0
  9
$DIMTVP
 40
0.0
  9
$DIMTIX
 70
     0
  9
$DIMSOXD
 70
     0
  9
$DIMSAH
 70
     0
  9
$DIMBLK1
  1

  9
$DIMBLK2
  1

  9
$DIMSTYLE
  2
Standard
  9
$DIMCLRD
 70
     0
  9
$DIMCLRE
 70
     0
  9
$DIMCLRT
 70
     0
  9
$DIMTFAC
 40
1.0
  9
$DIMGAP
 40
0.09
  9
$DIMJUST
 70
     0
  9
$DIMSD1
 70
     0
  9
$DIMSD2
 70
     0
  9
$DIMTOLJ
 70
     1
  9
$DIMTZIN
 70
     0
  9
$DIMALTZ
 70
     0
  9
$DIMALTTZ
 70
     0
  9
$DIMUPT
 70
     0
  9
$DIMDEC
 70
     4
  9
$DIMTDEC
 70
     4
  9
$DIMALTU
 70
     2
  9
$DIMALTTD
 70
     2
  9
$DIMTXSTY
  7
STANDARD
  9
$DIMAUNIT
 70
     0
  9
$DIMADEC
 70
     0
  9
$DIMALTRND
 40
0.0
  9
$DIMAZIN
 70
     0
  9
$DIMDSEP
 70
    46
  9
$DIMATFIT
 70
     3
  9
$DIMFRAC
 70
     0
  9
$DIMLDRBLK
  1

  9
$DIMLUNIT
 70
     2
  9
$DIMLWD
 70
    -2
  9
$DIMLWE
 70
    -2
  9
$DIMTMOVE
 70
     0
  9
$DIMFXL
 40
1.0
  9
$DIMFXLON
 70
     0
  9
$DIMJOGANG
 40
0.7853981633974483
  9
$DIMTFILL
 70
     0
  9
$DIMTFILLCLR
 70
     0
  9
$DIMARCSYM
 70
     0
  9
$DIMLTYPE
  6

  9
$DIMLTEX1
  6

  9
$DIMLTEX2
  6

  9
$LUNITS
 70
     2
  9
$LUPREC
 70
     4
  9
$SKETCHINC
 40
0.1
  9
$FILLETRAD
 40
0.125
  9
$AUNITS
 70
     0
  9
$AUPREC
 70
     0
  9
$MENU
  1
acad
  9
$ELEVATION
 40
0.0
  9
$PELEVATION
 40
0.0
  9
$THICKNESS
 40
0.0
  9
$LIMCHECK
 70
     0
  9
$CHAMFERA
 40
0.5
  9
$CHAMFERB
 40
0.5
  9
$CHAMFERC
 40
0.0
  9
$CHAMFERD
 40
0.0
  9
$SKPOLY
 70
     0
  9
$TDCREATE
 40
2313863.822572292
  9
$TDUCREATE
 40
2313863.739238958
  9
$TDUPDATE
 40
2455315.698626840
  9
$TDUUPDATE
 40
2455315.615293507
  9
$TDINDWG
 40
0.0222487269
  9
$TDUSRTIMER
 40
0.0222487269
  9
$USRTIMER
 70
     1
  9
$ANGBASE
 50
0.0
  9
$ANGDIR
 70
     0
  9
$PDMODE
 70
     0
  9
$PDSIZE
 40
0.0
  9
$PLINEWID
 40
0.008
  9
$SPLFRAME
 70
     0
  9
$SPLINETYPE
 70
     6
  9
$SPLINESEGS
 70
    10
  9
$HANDSEED
  5
133
  9
$SURFTAB1
 70
     6
  9
$SURFTAB2
 70
     6
  9
$SURFTYPE
 70
     6
  9
$SURFU
 70
     6
  9
$SURFV
 70
     6
  9
$UCSBASE
  2

  9
$UCSNAME
  2

  9
$UCSORG
 10
0.0
 20
0.0
 30
0.0
  9
$UCSXDIR
 10
1.0
 20
0.0
 30
0.0
  9
$UCSYDIR
 10
0.0
 20
1.0
 30
0.0
  9
$UCSORTHOREF
  2

  9
$UCSORTHOVIEW
 70
     0
  9
$UCSORGTOP
 10
0.0
 20
0.0
 30
0.0
  9
$UCSORGBOTTOM
 10
0.0
 20
0.0
 30
0.0
  9
$UCSORGLEFT
 10
0.0
 20
0.0
 30
0.0
  9
$UCSORGRIGHT
 10
0.0
 20
0.0
 30
0.0
  9
$UCSORGFRONT
 10
0.0
 20
0.0
 30
0.0
  9
$UCSORGBACK
 10
0.0
 20
0.0
 30
0.0
  9
$PUCSBASE
  2

  9
$PUCSNAME
  2

  9
$PUCSORG
 10
0.0
 20
0.0
 30
0.0
  9
$PUCSXDIR
 10
1.0
 20
0.0
 30
0.0
  9
$PUCSYDIR
 10
0.0
 20
1.0
 30
0.0
  9
$PUCSORTHOREF
  2

  9
$PUCSORTHOVIEW
 70
     0
  9
$PUCSORGTOP
 10
0.0
 20
0.0
 30
0.0
  9
$PUCSORGBOTTOM
 10
0.0
 20
0.0
 30
0.0
  9
$PUCSORGLEFT
 10
0.0
 20
0.0
 30
0.0
  9
$PUCSORGRIGHT
 10
0.0
 20
0.0
 30
0.0
  9
$PUCSORGFRONT
 10
0.0
 20
0.0
 30
0.0
  9
$PUCSORGBACK
 10
0.0
 20
0.0
 30
0.0
  9
$USERI1
 70
     0
  9
$USERI2
 70
     0
  9
$USERI3
 70
     0
  9
$USERI4
 70
     0
  9
$USERI5
 70
     0
  9
$USERR1
 40
0.0
  9
$USERR2
 40
0.0
  9
$USERR3
 40
0.0
  9
$USERR4
 40
0.0
  9
$USERR5
 40
0.0
  9
$WORLDVIEW
 70
     1
  9
$SHADEDGE
 70
     3
  9
$SHADEDIF
 70
    70
  9
$TILEMODE
 70
     1
  9
$MAXACTVP
 70
    64
  9
$PINSBASE
 10
0.0
 20
0.0
 30
0.0
  9
$PLIMCHECK
 70
     0
  9
$PEXTMIN
 10
1.000000000000000E+20
 20
1.000000000000000E+20
 30
1.000000000000000E+20
  9
$PEXTMAX
 10
-1.000000000000000E+20
 20
-1.000000000000000E+20
 30
-1.000000000000000E+20
  9
$PLIMMIN
 10
0.0
 20
0.0
  9
$PLIMMAX
 10
12.0
 20
9.0
  9
$UNITMODE
 70
     0
  9
$VISRETAIN
 70
     1
  9
$PLINEGEN
 70
     0
  9
$PSLTSCALE
 70
     1
  9
$TREEDEPTH
 70
  3020
  9
$CMLSTYLE
  2
Standard
  9
$CMLJUST
 70
     0
  9
$CMLSCALE
 40
1.0
  9
$PROXYGRAPHICS
 70
     1
  9
$MEASUREMENT
 70
     0
  9
$CELWEIGHT
370
    -1
  9
$ENDCAPS
280
     0
  9
$JOINSTYLE
280
     0
  9
$LWDISPLAY
290
     0
  9
$INSUNITS
 70
     0
  9
$HYPERLINKBASE
  1

  9
$STYLESHEET
  1

  9
$XEDIT
290
     1
  9
$CEPSNTYPE
380
     0
  9
$PSTYLEMODE
290
     1
  9
$FINGERPRINTGUID
  2
{F6FDE6C6-24E0-4CD2-813D-FB49DF203AAE}
  9
$VERSIONGUID
  2
{D8D1936C-39F9-436B-871E-9BED90DB15AC}
  9
$EXTNAMES
290
     1
  9
$PSVPSCALE
 40
0.0
  9
$OLESTARTUP
290
     0
  9
$SORTENTS
280
   127
  9
$INDEXCTL
280
     0
  9
$HIDETEXT
280
     0
  9
$XCLIPFRAME
290
     0
  9
$HALOGAP
280
     0
  9
$OBSCOLOR
 70
   257
  9
$OBSLTYPE
280
     0
  9
$INTERSECTIONDISPLAY
280
     0
  9
$INTERSECTIONCOLOR
 70
   257
  9
$DIMASSOC
280
     1
  9
$PROJECTNAME
  1

  9
$CAMERADISPLAY
290
     0
  9
$LENSLENGTH
 40
50.0
  9
$CAMERAHEIGHT
 40
0.0
  9
$STEPSPERSEC
 40
2.0
  9
$STEPSIZE
 40
6.0
  9
$3DDWFPREC
 40
2.0
  9
$PSOLWIDTH
 40
0.25
  9
$PSOLHEIGHT
 40
4.0
  9
$LOFTANG1
 40
1.570796326794896
  9
$LOFTANG2
 40
1.570796326794896
  9
$LOFTMAG1
 40
0.0
  9
$LOFTMAG2
 40
0.0
  9
$LOFTPARAM
 70
     7
  9
$LOFTNORMALS
280
     1
  9
$LATITUDE
 40
37.795
  9
$LONGITUDE
 40
-122.394
  9
$NORTHDIRECTION
 40
0.0
  9
$TIMEZONE
 70
 -8000
  9
$LIGHTGLYPHDISPLAY
280
     1
  9
$TILEMODELIGHTSYNCH
280
     1
  9
$CMATERIAL
347
11
  9
$SOLIDHIST
280
     1
  9
$SHOWHIST
280
     1
  9
$DWFFRAME
280
     2
  9
$DGNFRAME
280
     0
  9
$REALWORLDSCALE
290
     1
  9
$INTERFERECOLOR
 62
     1
  9
$INTERFEREOBJVS
345
1E
  9
$INTERFEREVPVS
346
1B
  9
$CSHADOW
280
     0
  9
$SHADOWPLANELOCATION
 40
0.0
  0
ENDSEC
  0
SECTION
  2
CLASSES
  0
CLASS
  1
ACDBDICTIONARYWDFLT
  2
AcDbDictionaryWithDefault
  3
ObjectDBX Classes
 90
        0
 91
        1
280
     0
281
     0
  0
CLASS
  1
MATERIAL
  2
AcDbMaterial
  3
ObjectDBX Classes
 90
     1024
 91
        3
280
     0
281
     0
  0
CLASS
  1
VISUALSTYLE
  2
AcDbVisualStyle
  3
ObjectDBX Classes
 90
     4095
 91
       16
280
     0
281
     0
  0
CLASS
  1
TABLESTYLE
  2
AcDbTableStyle
  3
ObjectDBX Classes
 90
     4095
 91
        1
280
     0
281
     0
  0
CLASS
  1
DICTIONARYVAR
  2
AcDbDictionaryVar
  3
ObjectDBX Classes
 90
        0
 91
        1
280
     0
281
     0
  0
CLASS
  1
SORTENTSTABLE
  2
AcDbSortentsTable
  3
ObjectDBX Classes
 90
        0
 91
        1
280
     0
281
     0
  0
ENDSEC
  0
SECTION
  2
TABLES
  0
TABLE
  2
VPORT
  5
8
330
0
100
AcDbSymbolTable
 70
     1
  0
VPORT
  5
4F
330
8
100
AcDbSymbolTableRecord
100
AcDbViewportTableRecord
  2
*Active
 70
     0
 10
0.0
 20
0.0
 11
1.0
 21
1.0
 12
238.4191378350006
 22
116.4473388863633
 13
0.0
 23
0.0
 14
10.0
 24
10.0
 15
10.0
 25
10.0
 16
0.0
 26
0.0
 36
1.0
 17
0.0
 27
0.0
 37
0.0
 40
321.483559562949
 41
2.493333333333333
 42
50.0
 43
0.0
 44
0.0
 50
0.0
 51
0.0
 71
     0
 72
   100
 73
     1
 74
     1
 75
     0
 76
     1
 77
     0
 78
     0
281
     0
 65
     1
110
0.0
120
0.0
130
0.0
111
1.0
121
0.0
131
0.0
112
0.0
122
1.0
132
0.0
 79
     0
146
0.0
348
1A
 60
     3
 61
     5
292
     1
282
     1
141
0.0
142
0.0
 63
   250
421
  3355443
  0
ENDTAB
  0
TABLE
  2
LTYPE
  5
5
330
0
100
AcDbSymbolTable
 70
    12
  0
LTYPE
  5
28
330
5
100
AcDbSymbolTableRecord
100
AcDbLinetypeTableRecord
  2
ByBlock
 70
     0
  3

 72
    65
 73
     0
 40
0.0
  0
LTYPE
  5
29
330
5
100
AcDbSymbolTableRecord
100
AcDbLinetypeTableRecord
  2
ByLayer
 70
     0
  3

 72
    65
 73
     0
 40
0.0
  0
LTYPE
  5
2A
330
5
100
AcDbSymbolTableRecord
100
AcDbLinetypeTableRecord
  2
CONTINUOUS
 70
     0
  3
Solid line
 72
    65
 73
     0
 40
0.0
  0
LTYPE
  5
3B
330
5
100
AcDbSymbolTableRecord
100
AcDbLinetypeTableRecord
  2
DASHED
 70
     0
  3
__ __ __ __ __ __ __ __ __ __ __ __ __ __ __
 72
    65
 73
     2
 40
0.75
 49
0.5
 74
     0
 49
-0.25
 74
     0
  0
LTYPE
  5
3C
330
5
100
AcDbSymbolTableRecord
100
AcDbLinetypeTableRecord
  2
HIDDEN
 70
     0
  3
_ _ _ _ _ _ _ _ _ _ _ _ _ _ _ _ _ _ _ _ _ _ 
 72
    65
 73
     2
 40
0.25
 49
0.125
 74
     0
 49
-0.125
 74
     0
  0
LTYPE
  5
3D
330
5
100
AcDbSymbolTableRecord
100
AcDbLinetypeTableRecord
  2
CENTER
 70
     0
  3
____ _ ____ _ ____ _ ____ _ ____ _ ____ _ __
 72
    65
 73
     4
 40
2.0
 49
1.25
 74
     0
 49
-0.25
 74
     0
 49
0.25
 74
     0
 49
-0.25
 74
     0
  0
LTYPE
  5
3E
330
5
100
AcDbSymbolTableRecord
100
AcDbLinetypeTableRecord
  2
PHANTOM
 70
     0
  3
_____ _ _ _____ _ _ _____ _ _ _____ _ _ ____
 72
    65
 73
     6
 40
2.5
 49
1.25
 74
     0
 49
-0.25
 74
     0
 49
0.25
 74
     0
 49
-0.25
 74
     0
 49
0.25
 74
     0
 49
-0.25
 74
     0
  0
LTYPE
  5
3F
330
5
100
AcDbSymbolTableRecord
100
AcDbLinetypeTableRecord
  2
DOT
 70
     0
  3
............................................
 72
    65
 73
     2
 40
0.25
 49
0.0
 74
     0
 49
-0.25
 74
     0
  0
LTYPE
  5
40
330
5
100
AcDbSymbolTableRecord
100
AcDbLinetypeTableRecord
  2
DASHDOT
 70
     0
  3
__ . __ . __ . __ . __ . __ . __ . __ . __ .
 72
    65
 73
     4
 40
1.0
 49
0.5
 74
     0
 49
-0.25
 74
     0
 49
0.0
 74
     0
 49
-0.25
 74
     0
  0
LTYPE
  5
41
330
5
100
AcDbSymbolTableRecord
100
AcDbLinetypeTableRecord
  2
BORDER
 70
     0
  3
__ __ . __ __ . __ __ . __ __ . __ __ . __ _
 72
    65
 73
     6
 40
1.75
 49
0.5
 74
     0
 49
-0.25
 74
     0
 49
0.5
 74
     0
 49
-0.25
 74
     0
 49
0.0
 74
     0
 49
-0.25
 74
     0
  0
LTYPE
  5
42
330
5
100
AcDbSymbolTableRecord
100
AcDbLinetypeTableRecord
  2
DIVIDE
 70
     0
  3
__ . . __ . . __ . . __ . . __ . . __ . . __
 72
    65
 73
     6
 40
1.25
 49
0.5
 74
     0
 49
-0.25
 74
     0
 49
0.0
 74
     0
 49
-0.25
 74
     0
 49
0.0
 74
     0
 49
-0.25
 74
     0
  0
LTYPE
  5
43
330
5
100
AcDbSymbolTableRecord
100
AcDbLinetypeTableRecord
  2
DOTS
 70
     0
  3
close                                       
 72
    65
 73
     2
 40
0.1
 49
0.05
 74
     0
 49
-0.05
 74
     0
  0
LTYPE
  5
44
330
5
100
AcDbSymbolTableRecord
100
AcDbLinetypeTableRecord
  2
CLOSE
 70
     0
  3
                                            
 72
    65
 73
     0
 40
0.0
  0
ENDTAB
  0
TABLE
  2
LAYER
  5
2
330
0
100
AcDbSymbolTable
 70
    13
  0
LAYER
  5
25
330
2
100
AcDbSymbolTableRecord
100
AcDbLayerTableRecord
  2
0
 70
     0
 62
     7
  6
CONTINUOUS
370
    -3
390
F
347
13
  0
LAYER
  5
3A
330
2
100
AcDbSymbolTableRecord
100
AcDbLayerTableRecord
  2
LAYER01
 70
     0
 62
     7
  6
CONTINUOUS
370
    -3
390
F
347
13
  0
LAYER
  5
45
330
2
100
AcDbSymbolTableRecord
100
AcDbLayerTableRecord
  2
LAYER02
 70
     0
 62
     7
  6
CONTINUOUS
370
    -3
390
F
347
13
  0
LAYER
  5
46
330
2
100
AcDbSymbolTableRecord
100
AcDbLayerTableRecord
  2
LAYER03
 70
     0
 62
     7
  6
CONTINUOUS
370
    -3
390
F
347
13
  0
LAYER
  5
47
330
2
100
AcDbSymbolTableRecord
100
AcDbLayerTableRecord
  2
LAYER04
 70
     0
 62
     7
  6
CONTINUOUS
370
    -3
390
F
347
13
  0
LAYER
  5
48
330
2
100
AcDbSymbolTableRecord
100
AcDbLayerTableRecord
  2
LAYER05
 70
     0
 62
     7
  6
CONTINUOUS
370
    -3
390
F
347
13
  0
LAYER
  5
49
330
2
100
AcDbSymbolTableRecord
100
AcDbLayerTableRecord
  2
LAYER06
 70
     0
 62
     7
  6
CONTINUOUS
370
    -3
390
F
347
13
  0
LAYER
  5
4A
330
2
100
AcDbSymbolTableRecord
100
AcDbLayerTableRecord
  2
LAYER07
 70
     0
 62
     7
  6
CONTINUOUS
370
    -3
390
F
347
13
  0
LAYER
  5
4B
330
2
100
AcDbSymbolTableRecord
100
AcDbLayerTableRecord
  2
LAYER08
 70
     0
 62
     7
  6
CONTINUOUS
370
    -3
390
F
347
13
  0
LAYER
  5
4C
330
2
100
AcDbSymbolTableRecord
100
AcDbLayerTableRecord
  2
LAYER09
 70
     0
 62
     7
  6
CONTINUOUS
370
    -3
390
F
347
13
  0
LAYER
  5
4D
330
2
100
AcDbSymbolTableRecord
100
AcDbLayerTableRecord
  2
LAYER10
 70
     0
 62
     7
  6
CONTINUOUS
370
    -3
390
F
347
13
  0
LAYER
  5
50
330
2
100
AcDbSymbolTableRecord
100
AcDbLayerTableRecord
  2
7
 70
     0
 62
     7
  6
CONTINUOUS
370
    -3
390
F
347
13
  0
LAYER
  5
D4
330
2
100
AcDbSymbolTableRecord
100
AcDbLayerTableRecord
  2
Defpoints
 70
     0
 62
     7
  6
CONTINUOUS
290
     0
370
    -3
390
F
347
13
  0
ENDTAB
  0
TABLE
  2
STYLE
  5
3
330
0
100
AcDbSymbolTable
 70
     1
  0
STYLE
  5
26
330
3
100
AcDbSymbolTableRecord
100
AcDbTextStyleTableRecord
  2
STANDARD
 70
     0
 40
0.0
 41
1.0
 50
0.0
 71
     0
 42
4.0
  3
txt
  4

  0
ENDTAB
  0
TABLE
  2
VIEW
  5
6
330
0
100
AcDbSymbolTable
 70
     0
  0
ENDTAB
  0
TABLE
  2
UCS
  5
7
330
0
100
AcDbSymbolTable
 70
     0
  0
ENDTAB
  0
TABLE
  2
APPID
  5
9
330
0
100
AcDbSymbolTable
 70
     2
  0
APPID
  5
27
330
9
100
AcDbSymbolTableRecord
100
AcDbRegAppTableRecord
  2
ACAD
 70
     0
  0
APPID
  5
9B
330
9
100
AcDbSymbolTableRecord
100
AcDbRegAppTableRecord
  2
ACAD_EXEMPT_FROM_CAD_STANDARDS
 70
     0
  0
ENDTAB
  0
TABLE
  2
DIMSTYLE
  5
A
330
0
100
AcDbSymbolTable
 70
     2
100
AcDbDimStyleTable
 71
     1
340
98
  0
DIMSTYLE
105
98
102
{ACAD_REACTORS
330
D3
330
E2
330
F0
330
FE
330
115
330
123
102
}
330
A
100
AcDbSymbolTableRecord
100
AcDbDimStyleTableRecord
  2
Standard
 70
     0
340
26
  0
ENDTAB
  0
TABLE
  2
BLOCK_RECORD
  5
1
330
0
100
AcDbSymbolTable
 70
     7
  0
BLOCK_RECORD
  5
36
102
{ACAD_XDICTIONARY
360
AA
102
}
330
1
100
AcDbSymbolTableRecord
100
AcDbBlockTableRecord
  2
*Model_Space
340
39
 70
     0
280
     1
281
     0
  0
BLOCK_RECORD
  5
32
330
1
100
AcDbSymbolTableRecord
100
AcDbBlockTableRecord
  2
*Paper_Space
340
35
 70
     0
280
     1
281
     0
  0
BLOCK_RECORD
  5
D5
330
1
100
AcDbSymbolTableRecord
100
AcDbBlockTableRecord
  2
*D1
340
0
 70
     0
280
     1
281
     0
  0
BLOCK_RECORD
  5
E3
330
1
100
AcDbSymbolTableRecord
100
AcDbBlockTableRecord
  2
*D2
340
0
 70
     0
280
     1
281
     0
  0
BLOCK_RECORD
  5
F1
330
1
100
AcDbSymbolTableRecord
100
AcDbBlockTableRecord
  2
*D3
340
0
 70
     0
280
     1
281
     0
  0
BLOCK_RECORD
  5
FF
330
1
100
AcDbSymbolTableRecord
100
AcDbBlockTableRecord
  2
*D4
340
0
 70
     0
280
     1
281
     0
  0
BLOCK_RECORD
  5
116
330
1
100
AcDbSymbolTableRecord
100
AcDbBlockTableRecord
  2
*D5
340
0
 70
     0
280
     1
281
     0
  0
BLOCK_RECORD
  5
124
330
1
100
AcDbSymbolTableRecord
100
AcDbBlockTableRecord
  2
*D6
340
0
 70
     0
280
     1
281
     0
  0
ENDTAB
  0
ENDSEC
  0
SECTION
  2
BLOCKS
  0
BLOCK
  5
37
330
36
100
AcDbEntity
  8
0
100
AcDbBlockBegin
  2
*Model_Space
 70
     0
 10
0.0
 20
0.0
 30
0.0
  3
*Model_Space
  1

  0
ENDBLK
  5
38
330
36
100
AcDbEntity
  8
0
100
AcDbBlockEnd
  0
BLOCK
  5
33
330
32
100
AcDbEntity
 67
     1
  8
0
100
AcDbBlockBegin
  2
*Paper_Space
 70
     0
 10
0.0
 20
0.0
 30
0.0
  3
*Paper_Space
  1

  0
ENDBLK
  5
34
330
32
100
AcDbEntity
 67
     1
  8
0
100
AcDbBlockEnd
  0
BLOCK
  5
E0
330
D5
100
AcDbEntity
  8
0
 62
     7
100
AcDbBlockBegin
  2
*D1
 70
     1
 10
0.0
 20
0.0
 30
0.0
  3
*D1
  1

  0
LINE
  5
D6
330
D5
100
AcDbEntity
  8
LAYER01
  6
Continuous
 62
     0
370
    -2
100
AcDbLine
 10
-19.48920739104108
 20
229.8847446757042
 30
0.0
 11
-19.48920739104108
 21
230.0022446757042
 31
0.0
  0
LINE
  5
D7
330
D5
100
AcDbEntity
  8
LAYER01
  6
Continuous
 62
     0
370
    -2
100
AcDbLine
 10
480.418546204569
 20
229.8847446757042
 30
0.0
 11
480.418546204569
 21
230.0022446757042
 31
0.0
  0
LINE
  5
D8
330
D5
100
AcDbEntity
  8
LAYER01
  6
Continuous
 62
     0
370
    -2
100
AcDbLine
 10
-19.30920739104108
 20
229.8222446757042
 30
0.0
 11
229.759669406764
 21
229.8222446757042
 31
0.0
  0
LINE
  5
D9
330
D5
100
AcDbEntity
  8
LAYER01
  6
Continuous
 62
     0
370
    -2
100
AcDbLine
 10
480.238546204569
 20
229.8222446757042
 30
0.0
 11
231.169669406764
 21
229.8222446757042
 31
0.0
  0
SOLID
  5
DA
330
D5
100
AcDbEntity
  8
LAYER01
  6
Continuous
 62
     0
100
AcDbTrace
 10
-19.30920739104108
 20
229.8522446757042
 30
0.0
 11
-19.30920739104108
 21
229.7922446757042
 31
0.0
 12
-19.48920739104108
 22
229.8222446757042
 32
0.0
 13
-19.48920739104108
 23
229.8222446757042
 33
0.0
  0
SOLID
  5
DB
330
D5
100
AcDbEntity
  8
LAYER01
  6
Continuous
 62
     0
100
AcDbTrace
 10
480.238546204569
 20
229.8522446757042
 30
0.0
 11
480.238546204569
 21
229.7922446757042
 31
0.0
 12
480.418546204569
 22
229.8222446757042
 32
0.0
 13
480.418546204569
 23
229.8222446757042
 33
0.0
  0
MTEXT
  5
DC
330
D5
100
AcDbEntity
  8
LAYER01
  6
Continuous
 62
     0
100
AcDbMText
 10
230.464669406764
 20
229.8222446757042
 30
0.0
 40
0.18
 41
0.0
 46
0.0
 71
     5
 72
     1
  1
\A1;499.9078
 73
     1
 44
1.0
  0
POINT
  5
DD
330
D5
100
AcDbEntity
  8
Defpoints
  6
Continuous
 62
     0
100
AcDbPoint
 10
-19.48920739104108
 20
229.8222446757042
 30
0.0
  0
POINT
  5
DE
330
D5
100
AcDbEntity
  8
Defpoints
  6
Continuous
 62
     0
100
AcDbPoint
 10
480.418546204569
 20
229.8222446757042
 30
0.0
  0
POINT
  5
DF
330
D5
100
AcDbEntity
  8
Defpoints
  6
Continuous
 62
     0
100
AcDbPoint
 10
480.418546204569
 20
229.8222446757042
 30
0.0
  0
ENDBLK
  5
E1
330
D5
100
AcDbEntity
  8
0
 62
     7
100
AcDbBlockEnd
  0
BLOCK
  5
EE
330
E3
100
AcDbEntity
  8
0
 62
     7
100
AcDbBlockBegin
  2
*D2
 70
     1
 10
0.0
 20
0.0
 30
0.0
  3
*D2
  1

  0
LINE
  5
E4
330
E3
100
AcDbEntity
  8
LAYER01
  6
Continuous
 62
     0
370
    -2
100
AcDbLine
 10
-39.61882019886798
 20
199.8741560463484
 30
0.0
 11
-39.50132019886794
 21
199.8741560463484
 31
0.0
  0
LINE
  5
E5
330
E3
100
AcDbEntity
  8
LAYER01
  6
Continuous
 62
     0
370
    -2
100
AcDbLine
 10
-39.61882019886802
 20
9.795473616885089
 30
0.0
 11
-39.50132019886798
 21
9.795473616885089
 31
0.0
  0
LINE
  5
E6
330
E3
100
AcDbEntity
  8
LAYER01
  6
Continuous
 62
     0
370
    -2
100
AcDbLine
 10
-39.68132019886794
 20
199.6941560463484
 30
0.0
 11
-39.68132019886796
 21
105.0148148316168
 31
0.0
  0
LINE
  5
E7
330
E3
100
AcDbEntity
  8
LAYER01
  6
Continuous
 62
     0
370
    -2
100
AcDbLine
 10
-39.68132019886798
 20
9.975473616885089
 30
0.0
 11
-39.68132019886796
 21
104.6548148316167
 31
0.0
  0
SOLID
  5
E8
330
E3
100
AcDbEntity
  8
LAYER01
  6
Continuous
 62
     0
100
AcDbTrace
 10
-39.71132019886794
 20
199.6941560463484
 30
0.0
 11
-39.65132019886794
 21
199.6941560463484
 31
0.0
 12
-39.68132019886794
 22
199.8741560463484
 32
0.0
 13
-39.68132019886794
 23
199.8741560463484
 33
0.0
  0
SOLID
  5
E9
330
E3
100
AcDbEntity
  8
LAYER01
  6
Continuous
 62
     0
100
AcDbTrace
 10
-39.71132019886798
 20
9.975473616885089
 30
0.0
 11
-39.65132019886798
 21
9.975473616885089
 31
0.0
 12
-39.68132019886798
 22
9.795473616885089
 32
0.0
 13
-39.68132019886798
 23
9.795473616885089
 33
0.0
  0
MTEXT
  5
EA
330
E3
100
AcDbEntity
  8
LAYER01
  6
Continuous
 62
     0
100
AcDbMText
 10
-39.68132019886797
 20
104.8348148316167
 30
0.0
 40
0.18
 41
0.0
 46
0.0
 71
     5
 72
     1
  1
\A1;190.0787
 73
     1
 44
1.0
  0
POINT
  5
EB
330
E3
100
AcDbEntity
  8
Defpoints
  6
Continuous
 62
     0
100
AcDbPoint
 10
-39.68132019886798
 20
199.8741560463484
 30
0.0
  0
POINT
  5
EC
330
E3
100
AcDbEntity
  8
Defpoints
  6
Continuous
 62
     0
100
AcDbPoint
 10
-39.68132019886802
 20
9.795473616885089
 30
0.0
  0
POINT
  5
ED
330
E3
100
AcDbEntity
  8
Defpoints
  6
Continuous
 62
     0
100
AcDbPoint
 10
-39.68132019886798
 20
9.795473616885089
 30
0.0
  0
ENDBLK
  5
EF
330
E3
100
AcDbEntity
  8
0
 62
     7
100
AcDbBlockEnd
  0
BLOCK
  5
FC
330
F1
100
AcDbEntity
  8
0
 62
     7
100
AcDbBlockBegin
  2
*D3
 70
     1
 10
0.0
 20
0.0
 30
0.0
  3
*D3
  1

  0
LINE
  5
F2
330
F1
100
AcDbEntity
  8
LAYER01
  6
Continuous
 62
     0
370
    -2
100
AcDbLine
 10
-19.48920739104108
 20
210.201809577045
 30
0.0
 11
-19.48920739104108
 21
208.8619385734336
 31
0.0
  0
LINE
  5
F3
330
F1
100
AcDbEntity
  8
LAYER01
  6
Continuous
 62
     0
370
    -2
100
AcDbLine
 10
10.4930194856106
 20
210.201809577045
 30
0.0
 11
10.4930194856106
 21
208.8619385734336
 31
0.0
  0
LINE
  5
F4
330
F1
100
AcDbEntity
  8
LAYER01
  6
Continuous
 62
     0
370
    -2
100
AcDbLine
 10
-19.30920739104108
 20
209.0419385734336
 30
0.0
 11
-5.128093952715237
 21
209.0419385734336
 31
0.0
  0
LINE
  5
F5
330
F1
100
AcDbEntity
  8
LAYER01
  6
Continuous
 62
     0
370
    -2
100
AcDbLine
 10
10.3130194856106
 20
209.0419385734336
 30
0.0
 11
-3.868093952715237
 21
209.0419385734336
 31
0.0
  0
SOLID
  5
F6
330
F1
100
AcDbEntity
  8
LAYER01
  6
Continuous
 62
     0
100
AcDbTrace
 10
-19.30920739104108
 20
209.0719385734336
 30
0.0
 11
-19.30920739104108
 21
209.0119385734336
 31
0.0
 12
-19.48920739104108
 22
209.0419385734336
 32
0.0
 13
-19.48920739104108
 23
209.0419385734336
 33
0.0
  0
SOLID
  5
F7
330
F1
100
AcDbEntity
  8
LAYER01
  6
Continuous
 62
     0
100
AcDbTrace
 10
10.3130194856106
 20
209.0719385734336
 30
0.0
 11
10.3130194856106
 21
209.0119385734336
 31
0.0
 12
10.4930194856106
 22
209.0419385734336
 32
0.0
 13
10.4930194856106
 23
209.0419385734336
 33
0.0
  0
MTEXT
  5
F8
330
F1
100
AcDbEntity
  8
LAYER01
  6
Continuous
 62
     0
100
AcDbMText
 10
-4.498093952715237
 20
209.0419385734336
 30
0.0
 40
0.18
 41
0.0
 46
0.0
 71
     5
 72
     1
  1
\A1;29.9822
 73
     1
 44
1.0
  0
POINT
  5
F9
330
F1
100
AcDbEntity
  8
Defpoints
  6
Continuous
 62
     0
100
AcDbPoint
 10
-19.48920739104108
 20
210.264309577045
 30
0.0
  0
POINT
  5
FA
330
F1
100
AcDbEntity
  8
Defpoints
  6
Continuous
 62
     0
100
AcDbPoint
 10
10.4930194856106
 20
210.264309577045
 30
0.0
  0
POINT
  5
FB
330
F1
100
AcDbEntity
  8
Defpoints
  6
Continuous
 62
     0
100
AcDbPoint
 10
10.4930194856106
 20
209.0419385734336
 30
0.0
  0
ENDBLK
  5
FD
330
F1
100
AcDbEntity
  8
0
 62
     7
100
AcDbBlockEnd
  0
BLOCK
  5
10A
330
FF
100
AcDbEntity
  8
0
 62
     7
100
AcDbBlockBegin
  2
*D4
 70
     1
 10
0.0
 20
0.0
 30
0.0
  3
*D4
  1

  0
LINE
  5
100
330
FF
100
AcDbEntity
  8
LAYER01
  6
Continuous
 62
     0
370
    -2
100
AcDbLine
 10
10.4930194856106
 20
220.1057771263746
 30
0.0
 11
10.4930194856106
 21
220.2232771263746
 31
0.0
  0
LINE
  5
101
330
FF
100
AcDbEntity
  8
LAYER01
  6
Continuous
 62
     0
370
    -2
100
AcDbLine
 10
80.24758969915138
 20
220.1057771263746
 30
0.0
 11
80.24758969915138
 21
220.2232771263746
 31
0.0
  0
LINE
  5
102
330
FF
100
AcDbEntity
  8
LAYER01
  6
Continuous
 62
     0
370
    -2
100
AcDbLine
 10
10.6730194856106
 20
220.0432771263745
 30
0.0
 11
44.74030459238099
 21
220.0432771263745
 31
0.0
  0
LINE
  5
103
330
FF
100
AcDbEntity
  8
LAYER01
  6
Continuous
 62
     0
370
    -2
100
AcDbLine
 10
80.06758969915138
 20
220.0432771263745
 30
0.0
 11
46.00030459238099
 21
220.0432771263745
 31
0.0
  0
SOLID
  5
104
330
FF
100
AcDbEntity
  8
LAYER01
  6
Continuous
 62
     0
100
AcDbTrace
 10
10.6730194856106
 20
220.0732771263746
 30
0.0
 11
10.6730194856106
 21
220.0132771263746
 31
0.0
 12
10.4930194856106
 22
220.0432771263745
 32
0.0
 13
10.4930194856106
 23
220.0432771263745
 33
0.0
  0
SOLID
  5
105
330
FF
100
AcDbEntity
  8
LAYER01
  6
Continuous
 62
     0
100
AcDbTrace
 10
80.06758969915138
 20
220.0732771263746
 30
0.0
 11
80.06758969915138
 21
220.0132771263746
 31
0.0
 12
80.24758969915138
 22
220.0432771263745
 32
0.0
 13
80.24758969915138
 23
220.0432771263745
 33
0.0
  0
MTEXT
  5
106
330
FF
100
AcDbEntity
  8
LAYER01
  6
Continuous
 62
     0
100
AcDbMText
 10
45.37030459238098
 20
220.0432771263745
 30
0.0
 40
0.18
 41
0.0
 46
0.0
 71
     5
 72
     1
  1
\A1;69.7546
 73
     1
 44
1.0
  0
POINT
  5
107
330
FF
100
AcDbEntity
  8
Defpoints
  6
Continuous
 62
     0
100
AcDbPoint
 10
10.4930194856106
 20
220.0432771263745
 30
0.0
  0
POINT
  5
108
330
FF
100
AcDbEntity
  8
Defpoints
  6
Continuous
 62
     0
100
AcDbPoint
 10
80.24758969915138
 20
220.0432771263745
 30
0.0
  0
POINT
  5
109
330
FF
100
AcDbEntity
  8
Defpoints
  6
Continuous
 62
     0
100
AcDbPoint
 10
80.24758969915138
 20
220.0432771263745
 30
0.0
  0
ENDBLK
  5
10B
330
FF
100
AcDbEntity
  8
0
 62
     7
100
AcDbBlockEnd
  0
BLOCK
  5
121
330
116
100
AcDbEntity
  8
0
 62
     7
100
AcDbBlockBegin
  2
*D5
 70
     1
 10
0.0
 20
0.0
 30
0.0
  3
*D5
  1

  0
LINE
  5
117
330
116
100
AcDbEntity
  8
LAYER01
  6
Continuous
 62
     0
370
    -2
100
AcDbLine
 10
469.4671663825086
 20
3.07243309702261
 30
0.0
 11
470.1965486612731
 21
3.07243309702261
 31
0.0
  0
LINE
  5
118
330
116
100
AcDbEntity
  8
LAYER01
  6
Continuous
 62
     0
370
    -2
100
AcDbLine
 10
469.4671663825086
 20
-36.65462260210143
 30
0.0
 11
470.1965486612731
 21
-36.65462260210143
 31
0.0
  0
LINE
  5
119
330
116
100
AcDbEntity
  8
LAYER01
  6
Continuous
 62
     0
370
    -2
100
AcDbLine
 10
470.0165486612731
 20
2.89243309702261
 30
0.0
 11
470.0165486612731
 21
-16.6110947525394
 31
0.0
  0
LINE
  5
11A
330
116
100
AcDbEntity
  8
LAYER01
  6
Continuous
 62
     0
370
    -2
100
AcDbLine
 10
470.0165486612731
 20
-36.47462260210143
 30
0.0
 11
470.0165486612731
 21
-16.9710947525394
 31
0.0
  0
SOLID
  5
11B
330
116
100
AcDbEntity
  8
LAYER01
  6
Continuous
 62
     0
100
AcDbTrace
 10
469.9865486612732
 20
2.89243309702261
 30
0.0
 11
470.0465486612731
 21
2.89243309702261
 31
0.0
 12
470.0165486612731
 22
3.07243309702261
 32
0.0
 13
470.0165486612731
 23
3.07243309702261
 33
0.0
  0
SOLID
  5
11C
330
116
100
AcDbEntity
  8
LAYER01
  6
Continuous
 62
     0
100
AcDbTrace
 10
469.9865486612732
 20
-36.47462260210143
 30
0.0
 11
470.0465486612731
 21
-36.47462260210143
 31
0.0
 12
470.0165486612731
 22
-36.65462260210143
 32
0.0
 13
470.0165486612731
 23
-36.65462260210143
 33
0.0
  0
MTEXT
  5
11D
330
116
100
AcDbEntity
  8
LAYER01
  6
Continuous
 62
     0
100
AcDbMText
 10
470.0165486612731
 20
-16.79109475253933
 30
0.0
 40
0.18
 41
0.0
 46
0.0
 71
     5
 72
     1
  1
\A1;39.7271
 73
     1
 44
1.0
  0
POINT
  5
11E
330
116
100
AcDbEntity
  8
Defpoints
  6
Continuous
 62
     0
100
AcDbPoint
 10
469.4046663825085
 20
3.07243309702261
 30
0.0
  0
POINT
  5
11F
330
116
100
AcDbEntity
  8
Defpoints
  6
Continuous
 62
     0
100
AcDbPoint
 10
469.4046663825085
 20
-36.65462260210143
 30
0.0
  0
POINT
  5
120
330
116
100
AcDbEntity
  8
Defpoints
  6
Continuous
 62
     0
100
AcDbPoint
 10
470.0165486612731
 20
-36.65462260210143
 30
0.0
  0
ENDBLK
  5
122
330
116
100
AcDbEntity
  8
0
 62
     7
100
AcDbBlockEnd
  0
BLOCK
  5
12F
330
124
100
AcDbEntity
  8
0
 62
     7
100
AcDbBlockBegin
  2
*D6
 70
     1
 10
0.0
 20
0.0
 30
0.0
  3
*D6
  1

  0
LINE
  5
125
330
124
100
AcDbEntity
  8
LAYER01
  6
Continuous
 62
     0
370
    -2
100
AcDbLine
 10
-1.070241419508647
 20
3.07243309702261
 30
0.0
 11
0.2710231380210051
 21
3.07243309702261
 31
0.0
  0
LINE
  5
126
330
124
100
AcDbEntity
  8
LAYER01
  6
Continuous
 62
     0
370
    -2
100
AcDbLine
 10
-1.070241419508651
 20
-17.09668750344224
 30
0.0
 11
0.2710231380210006
 21
-17.09668750344224
 31
0.0
  0
LINE
  5
127
330
124
100
AcDbEntity
  8
LAYER01
  6
Continuous
 62
     0
370
    -2
100
AcDbLine
 10
0.0910231380210052
 20
2.892433097022609
 30
0.0
 11
0.091023138021003
 21
-6.832127203209815
 31
0.0
  0
LINE
  5
128
330
124
100
AcDbEntity
  8
LAYER01
  6
Continuous
 62
     0
370
    -2
100
AcDbLine
 10
0.0910231380210008
 20
-16.91668750344224
 30
0.0
 11
0.0910231380210029
 21
-7.192127203209814
 31
0.0
  0
SOLID
  5
129
330
124
100
AcDbEntity
  8
LAYER01
  6
Continuous
 62
     0
100
AcDbTrace
 10
0.0610231380210052
 20
2.892433097022609
 30
0.0
 11
0.1210231380210051
 21
2.892433097022609
 31
0.0
 12
0.0910231380210052
 22
3.07243309702261
 32
0.0
 13
0.0910231380210052
 23
3.07243309702261
 33
0.0
  0
SOLID
  5
12A
330
124
100
AcDbEntity
  8
LAYER01
  6
Continuous
 62
     0
100
AcDbTrace
 10
0.0610231380210008
 20
-16.91668750344224
 30
0.0
 11
0.1210231380210007
 21
-16.91668750344224
 31
0.0
 12
0.0910231380210007
 22
-17.09668750344224
 32
0.0
 13
0.0910231380210007
 23
-17.09668750344224
 33
0.0
  0
MTEXT
  5
12B
330
124
100
AcDbEntity
  8
LAYER01
  6
Continuous
 62
     0
100
AcDbMText
 10
0.0910231380210041
 20
-7.012127203209814
 30
0.0
 40
0.18
 41
0.0
 46
0.0
 71
     5
 72
     1
  1
\A1;20.1691
 73
     1
 44
1.0
  0
POINT
  5
12C
330
124
100
AcDbEntity
  8
Defpoints
  6
Continuous
 62
     0
100
AcDbPoint
 10
-1.132741419508647
 20
3.07243309702261
 30
0.0
  0
POINT
  5
12D
330
124
100
AcDbEntity
  8
Defpoints
  6
Continuous
 62
     0
100
AcDbPoint
 10
-1.132741419508651
 20
-17.09668750344224
 30
0.0
  0
POINT
  5
12E
330
124
100
AcDbEntity
  8
Defpoints
  6
Continuous
 62
     0
100
AcDbPoint
 10
0.0910231380210007
 20
-17.09668750344224
 30
0.0
  0
ENDBLK
  5
130
330
124
100
AcDbEntity
  8
0
 62
     7
100
AcDbBlockEnd
  0
ENDSEC
  0
SECTION
  2
ENTITIES
  0
LWPOLYLINE
  5
51
330
36
100
AcDbEntity
  8
7
  6
Continuous
100
AcDbPolyline
 90
        5
 70
     0
 43
0.0
 10
10.0
 20
195.97449
 10
480.0
 20
195.97449
 10
480.0
 20
10.97449
 10
10.0
 20
10.97449
 10
10.0
 20
195.97449
  0
LWPOLYLINE
  5
58
330
36
100
AcDbEntity
  8
7
  6
Continuous
100
AcDbPolyline
 90
        2
 70
     0
 43
0.0
 10
10.0
 20
195.97449
 10
10.0
 20
10.97449
  0
LWPOLYLINE
  5
5C
330
36
100
AcDbEntity
  8
7
  6
Continuous
100
AcDbPolyline
 90
        2
 70
     0
 43
0.0
 10
80.0
 20
195.97449
 10
80.0
 20
10.97449
  0
LWPOLYLINE
  5
60
330
36
100
AcDbEntity
  8
7
  6
Continuous
100
AcDbPolyline
 90
        2
 70
     0
 43
0.0
 10
150.0
 20
195.97449
 10
150.0
 20
10.97449
  0
LWPOLYLINE
  5
64
330
36
100
AcDbEntity
  8
7
  6
Continuous
100
AcDbPolyline
 90
        2
 70
     0
 43
0.0
 10
220.0
 20
195.97449
 10
220.0
 20
10.97449
  0
LWPOLYLINE
  5
68
330
36
100
AcDbEntity
  8
7
  6
Continuous
100
AcDbPolyline
 90
        2
 70
     0
 43
0.0
 10
290.0
 20
195.97449
 10
290.0
 20
10.97449
  0
LWPOLYLINE
  5
6C
330
36
100
AcDbEntity
  8
7
  6
Continuous
100
AcDbPolyline
 90
        2
 70
     0
 43
0.0
 10
360.0
 20
195.97449
 10
360.0
 20
10.97449
  0
LWPOLYLINE
  5
70
330
36
100
AcDbEntity
  8
7
  6
Continuous
100
AcDbPolyline
 90
        2
 70
     0
 43
0.0
 10
430.0
 20
195.97449
 10
430.0
 20
10.97449
  0
LWPOLYLINE
  5
74
330
36
100
AcDbEntity
  8
7
  6
Continuous
100
AcDbPolyline
 90
        2
 70
     0
 43
0.0
 10
480.0
 20
195.97449
 10
480.0
 20
10.97449
  0
LWPOLYLINE
  5
78
330
36
100
AcDbEntity
  8
7
  6
Continuous
100
AcDbPolyline
 90
        2
 70
     0
 43
0.0
 10
10.0
 20
196.95346
 10
480.0
 20
196.94427
  0
LWPOLYLINE
  5
7C
330
36
100
AcDbEntity
  8
7
  6
Continuous
100
AcDbPolyline
 90
        2
 70
     0
 43
0.0
 10
10.0
 20
190.01231
 10
480.0
 20
190.0215
  0
LWPOLYLINE
  5
80
330
36
100
AcDbEntity
  8
7
  6
Continuous
100
AcDbPolyline
 90
        2
 70
     0
 43
0.0
 10
10.0
 20
14.97449
 10
480.0
 20
14.97449
  0
LWPOLYLINE
  5
84
330
36
100
AcDbEntity
  8
7
  6
Continuous
100
AcDbPolyline
 90
        2
 70
     0
 43
0.0
 10
10.0
 20
14.97449
 10
480.0
 20
14.97449
  0
LWPOLYLINE
  5
88
330
36
100
AcDbEntity
  8
7
  6
Continuous
100
AcDbPolyline
 90
        2
 70
     0
 43
0.0
 10
10.0
 20
143.52949
 10
480.0
 20
142.97449
  0
LWPOLYLINE
  5
8C
330
36
100
AcDbEntity
  8
7
  6
Continuous
100
AcDbPolyline
 90
        2
 70
     0
 43
0.0
 10
10.0
 20
138.52949
 10
480.0
 20
137.97449
  0
LWPOLYLINE
  5
90
330
36
100
AcDbEntity
  8
7
  6
Continuous
100
AcDbPolyline
 90
        2
 70
     0
 43
0.0
 10
10.0
 20
143.52954
 10
480.0
 20
146.6745399999999
  0
LWPOLYLINE
  5
94
330
36
100
AcDbEntity
  8
7
  6
Continuous
100
AcDbPolyline
 90
        2
 70
     0
 43
0.0
 10
10.0
 20
138.52943
 10
480.0
 20
141.67443
  0
ARC
  5
A8
330
36
100
AcDbEntity
  8
LAYER01
  6
Continuous
 62
     7
100
AcDbCircle
 10
331.1997892234948
 20
152.6145744041196
 30
0.0
 40
351.0430430976001
100
AcDbArc
 50
179.6742279413074
 51
203.7961318584325
  0
ARC
  5
A9
330
36
100
AcDbEntity
  8
LAYER01
  6
Continuous
 62
     7
100
AcDbCircle
 10
-19.70652829170312
 20
155.4832499473393
 30
0.0
 40
0.125
100
AcDbArc
 50
10.11211216661245
 51
179.5316147591603
  0
ARC
  5
AC
330
36
100
AcDbEntity
  8
LAYER01
  6
Continuous
 62
     7
100
AcDbCircle
 10
-19.70652829170312
 20
155.4832499473393
 30
0.0
 40
0.125
100
AcDbArc
 50
10.11211216661245
 51
179.5316147591603
  0
ARC
  5
B1
330
36
100
AcDbEntity
  8
LAYER01
  6
Continuous
 62
     7
100
AcDbCircle
 10
-19.71258160360941
 20
154.6098117208535
 30
0.0
 40
0.125
100
AcDbArc
 50
16.64638314814771
 51
179.6742279412687
  0
ARC
  5
B2
330
36
100
AcDbEntity
  8
LAYER01
  6
Continuous
 62
     7
100
AcDbCircle
 10
-19.71258160360941
 20
154.6098117208535
 30
0.0
 40
0.125
100
AcDbArc
 50
16.64638314814771
 51
179.6742279412687
  0
ARC
  5
B3
330
36
100
AcDbEntity
  8
LAYER01
  6
Continuous
 62
     7
100
AcDbCircle
 10
25.68993369269128
 20
161.560746007241
 30
0.0
 40
45.80771522681574
100
AcDbArc
 50
141.2414992906417
 51
188.6825559357061
  0
ARC
  5
B4
330
36
100
AcDbEntity
  8
LAYER01
  6
Continuous
 62
     7
100
AcDbCircle
 10
8.122249237269114
 20
169.3230171226332
 30
0.0
 40
27.69417486632097
100
AcDbArc
 50
86.11218606133359
 51
130.9555350006978
  0
DIMENSION
  5
D3
330
36
100
AcDbEntity
  8
LAYER01
  6
Continuous
 62
     7
100
AcDbDimension
  2
*D1
 10
480.418546204569
 20
229.8222446757042
 30
0.0
 11
230.464669406764
 21
229.8222446757042
 31
0.0
 70
    32
 71
     5
 42
499.9077535956102
 73
     0
 74
     0
 75
     0
  3
Standard
100
AcDbAlignedDimension
 13
-19.48920739104108
 23
229.8222446757042
 33
0.0
 14
480.418546204569
 24
229.8222446757042
 34
0.0
100
AcDbRotatedDimension
  0
DIMENSION
  5
E2
330
36
100
AcDbEntity
  8
LAYER01
  6
Continuous
 62
     7
100
AcDbDimension
  2
*D2
 10
-39.68132019886798
 20
9.795473616885089
 30
0.0
 11
-39.68132019886797
 21
104.8348148316167
 31
0.0
 70
    32
 71
     5
 42
190.0786824294633
 73
     0
 74
     0
 75
     0
  3
Standard
100
AcDbAlignedDimension
 13
-39.68132019886798
 23
199.8741560463484
 33
0.0
 14
-39.68132019886802
 24
9.795473616885089
 34
0.0
 50
90.0
100
AcDbRotatedDimension
  0
DIMENSION
  5
F0
330
36
100
AcDbEntity
  8
LAYER01
  6
Continuous
 62
     7
100
AcDbDimension
  2
*D3
 10
10.4930194856106
 20
209.0419385734336
 30
0.0
 11
-4.498093952715237
 21
209.0419385734336
 31
0.0
 70
    32
 71
     5
 42
29.98222687665168
 73
     0
 74
     0
 75
     0
  3
Standard
100
AcDbAlignedDimension
 13
-19.48920739104108
 23
210.264309577045
 33
0.0
 14
10.4930194856106
 24
210.264309577045
 34
0.0
100
AcDbRotatedDimension
  0
DIMENSION
  5
FE
330
36
100
AcDbEntity
  8
LAYER01
  6
Continuous
 62
     7
100
AcDbDimension
  2
*D4
 10
80.24758969915138
 20
220.0432771263745
 30
0.0
 11
45.37030459238098
 21
220.0432771263745
 31
0.0
 70
    32
 71
     5
 42
69.75457021354078
 73
     0
 74
     0
 75
     0
  3
Standard
100
AcDbAlignedDimension
 13
10.4930194856106
 23
220.0432771263745
 33
0.0
 14
80.24758969915138
 24
220.0432771263745
 34
0.0
100
AcDbRotatedDimension
  0
TEXT
  5
10C
330
36
100
AcDbEntity
  8
LAYER01
  6
Continuous
 62
     7
100
AcDbText
 10
200.7883830716417
 20
239.6012122250338
 30
0.0
 40
4.0
  1
500 mm
100
AcDbText
  0
TEXT
  5
10D
330
36
100
AcDbEntity
  8
LAYER01
  6
Continuous
 62
     7
100
AcDbText
 10
37.41583616414437
 20
213.3202366065121
 30
0.0
 40
4.0
  1
70 mm
100
AcDbText
  0
TEXT
  5
10E
330
36
100
AcDbEntity
  8
LAYER01
  6
Continuous
 62
     7
100
AcDbText
 10
-10.31097440527492
 20
203.5412690571825
 30
0.0
 40
4.0
  1
30 mm
100
AcDbText
  0
TEXT
  5
10F
330
36
100
AcDbEntity
  8
LAYER01
  6
Continuous
 62
     7
100
AcDbText
 10
-58.03778617040041
 20
122.8647861757617
 30
0.0
 40
4.0
  1
190 mm
100
AcDbText
  0
LINE
  5
110
330
36
100
AcDbEntity
  8
LAYER01
  6
Continuous
 62
     7
100
AcDbLine
 10
10.0
 20
3.07243309702261
 30
0.0
 11
455.3313763623298
 21
3.07243309702261
 31
0.0
  0
LINE
  5
111
330
36
100
AcDbEntity
  8
LAYER01
  6
Continuous
 62
     7
100
AcDbLine
 10
455.3313763623298
 20
3.07243309702261
 30
0.0
 11
449.2125547703876
 21
-36.65462260210143
 31
0.0
  0
LINE
  5
112
330
36
100
AcDbEntity
  8
LAYER01
  6
Continuous
 62
     7
100
AcDbLine
 10
449.2125547703876
 20
-36.65462260210143
 30
0.0
 11
16.61184227325884
 21
-16.48550200163657
 31
0.0
  0
LINE
  5
113
330
36
100
AcDbEntity
  8
LAYER01
  6
Continuous
 62
     7
100
AcDbLine
 10
16.61184227325884
 20
-16.48550200163657
 30
0.0
 11
10.0
 21
3.07243309702261
 31
0.0
  0
LINE
  5
114
330
36
100
AcDbEntity
  8
LAYER01
  6
Continuous
 62
     7
100
AcDbLine
 10
10.0
 20
3.07243309702261
 30
0.0
 11
10.0
 21
3.07243309702261
 31
0.0
  0
DIMENSION
  5
115
330
36
100
AcDbEntity
  8
LAYER01
  6
Continuous
 62
     7
100
AcDbDimension
  2
*D5
 10
470.0165486612731
 20
-36.65462260210143
 30
0.0
 11
470.0165486612731
 21
-16.79109475253933
 31
0.0
 70
    32
 71
     5
 42
39.72705569912404
 73
     0
 74
     0
 75
     0
  3
Standard
100
AcDbAlignedDimension
 13
469.4046663825085
 23
3.07243309702261
 33
0.0
 14
469.4046663825085
 24
-36.65462260210143
 34
0.0
 50
90.0
100
AcDbRotatedDimension
  0
DIMENSION
  5
123
330
36
100
AcDbEntity
  8
LAYER01
  6
Continuous
 62
     7
100
AcDbDimension
  2
*D6
 10
0.0910231380210007
 20
-17.09668750344224
 30
0.0
 11
0.0910231380210041
 21
-7.012127203209814
 31
0.0
 70
    32
 71
     5
 42
20.16912060046485
 73
     0
 74
     0
 75
     0
  3
Standard
100
AcDbAlignedDimension
 13
-1.132741419508647
 23
3.07243309702261
 33
0.0
 14
-1.132741419508651
 24
-17.09668750344224
 34
0.0
 50
90.0
100
AcDbRotatedDimension
  0
TEXT
  5
131
330
36
100
AcDbEntity
  8
LAYER01
  6
Continuous
 62
     7
100
AcDbText
 10
-17.6535605547466
 20
-7.928905455918311
 30
0.0
 40
4.0
  1
20mm
100
AcDbText
  0
TEXT
  5
132
330
36
100
AcDbEntity
  8
LAYER01
  6
Continuous
 62
     7
100
AcDbText
 10
476.1353714489214
 20
-13.4295744926082
 30
0.0
 40
4.0
  1
40mm
100
AcDbText
  0
ENDSEC
  0
SECTION
  2
OBJECTS
  0
DICTIONARY
  5
C
330
0
100
AcDbDictionary
281
     1
  3
ACAD_COLOR
350
2F
  3
ACAD_GROUP
350
D
  3
ACAD_LAYOUT
350
2E
  3
ACAD_MATERIAL
350
10
  3
ACAD_MLINESTYLE
350
2B
  3
ACAD_PLOTSETTINGS
350
2D
  3
ACAD_PLOTSTYLENAME
350
E
  3
ACAD_TABLESTYLE
350
30
  3
ACAD_VISUALSTYLE
350
14
  3
AcDbVariableDictionary
350
A6
  0
DICTIONARY
  5
AA
330
36
100
AcDbDictionary
280
     1
281
     1
  3
ACAD_SORTENTS
360
AB
  0
DICTIONARY
  5
2F
102
{ACAD_REACTORS
330
C
102
}
330
C
100
AcDbDictionary
281
     1
  0
DICTIONARY
  5
D
102
{ACAD_REACTORS
330
C
102
}
330
C
100
AcDbDictionary
281
     1
  0
DICTIONARY
  5
2E
102
{ACAD_REACTORS
330
C
102
}
330
C
100
AcDbDictionary
281
     1
  3
Layout1
350
35
  3
Model
350
39
  0
DICTIONARY
  5
10
102
{ACAD_REACTORS
330
C
102
}
330
C
100
AcDbDictionary
281
     1
  3
ByBlock
350
12
  3
ByLayer
350
11
  3
Global
350
13
  0
DICTIONARY
  5
2B
102
{ACAD_REACTORS
330
C
102
}
330
C
100
AcDbDictionary
281
     1
  3
Standard
350
2C
  0
DICTIONARY
  5
2D
102
{ACAD_REACTORS
330
C
102
}
330
C
100
AcDbDictionary
281
     1
  0
ACDBDICTIONARYWDFLT
  5
E
102
{ACAD_REACTORS
330
C
102
}
330
C
100
AcDbDictionary
281
     1
  3
Normal
350
F
100
AcDbDictionaryWithDefault
340
F
  0
DICTIONARY
  5
30
102
{ACAD_REACTORS
330
C
102
}
330
C
100
AcDbDictionary
281
     1
  3
Standard
350
31
  0
DICTIONARY
  5
14
102
{ACAD_REACTORS
330
C
102
}
330
C
100
AcDbDictionary
281
     1
  3
2dWireframe
350
1A
  3
3D Hidden
350
1C
  3
3dWireframe
350
1B
  3
Basic
350
19
  3
Brighten
350
20
  3
ColorChange
350
24
  3
Conceptual
350
1D
  3
Dim
350
1F
  3
Facepattern
350
23
  3
Flat
350
15
  3
FlatWithEdges
350
16
  3
Gouraud
350
17
  3
GouraudWithEdges
350
18
  3
Linepattern
350
22
  3
Realistic
350
1E
  3
Thicken
350
21
  0
DICTIONARY
  5
A6
102
{ACAD_REACTORS
330
C
102
}
330
C
100
AcDbDictionary
281
     1
  3
CTABLESTYLE
350
A7
  0
SORTENTSTABLE
  5
AB
102
{ACAD_REACTORS
330
AA
102
}
330
AA
100
AcDbSortentsTable
330
36
331
84
  5
84
331
5C
  5
5C
331
80
  5
80
331
58
  5
58
331
B1
  5
B0
331
7C
  5
7C
331
74
  5
74
331
78
  5
78
331
A9
  5
A9
331
70
  5
70
331
94
  5
94
331
6C
  5
6C
331
B2
  5
AD
331
90
  5
90
331
68
  5
68
331
8C
  5
8C
331
64
  5
64
331
AC
  5
A8
331
51
  5
51
331
88
  5
88
331
60
  5
60
331
A8
  5
AC
  0
LAYOUT
  5
35
102
{ACAD_REACTORS
330
2E
102
}
330
2E
100
AcDbPlotSettings
  1

  2
\\PC-PAOLO\HP DeskJet 970Cxi
  4

  6

 40
0.0
 41
0.0
 42
0.0
 43
0.0
 44
0.0
 45
0.0
 46
0.0
 47
0.0
 48
0.0
 49
0.0
140
0.0
141
0.0
142
1.0
143
1.0
 70
   688
 72
     0
 73
     0
 74
     5
  7

 75
    16
147
1.0
 76
     0
 77
     2
 78
   300
148
0.0
149
0.0
100
AcDbLayout
  1
Layout1
 70
     1
 71
     1
 10
0.0
 20
0.0
 11
12.0
 21
9.0
 12
0.0
 22
0.0
 32
0.0
 14
1.000000000000000E+20
 24
1.000000000000000E+20
 34
1.000000000000000E+20
 15
-1.000000000000000E+20
 25
-1.000000000000000E+20
 35
-1.000000000000000E+20
146
0.0
 13
0.0
 23
0.0
 33
0.0
 16
1.0
 26
0.0
 36
0.0
 17
0.0
 27
1.0
 37
0.0
 76
     0
330
32
  0
LAYOUT
  5
39
102
{ACAD_REACTORS
330
2E
102
}
330
2E
100
AcDbPlotSettings
  1

  2
\\PC-PAOLO\HP DeskJet 970Cxi
  4

  6

 40
0.0
 41
0.0
 42
0.0
 43
0.0
 44
0.0
 45
0.0
 46
0.0
 47
0.0
 48
0.0
 49
0.0
140
0.0
141
0.0
142
1.0
143
1.0
 70
  1712
 72
     0
 73
     0
 74
     0
  7

 75
     0
147
1.0
 76
     0
 77
     2
 78
   300
148
0.0
149
0.0
100
AcDbLayout
  1
Model
 70
     1
 71
     0
 10
0.0
 20
0.0
 11
12.0
 21
9.0
 12
0.0
 22
0.0
 32
0.0
 14
0.0
 24
0.0
 34
0.0
 15
0.0
 25
0.0
 35
0.0
146
0.0
 13
0.0
 23
0.0
 33
0.0
 16
1.0
 26
0.0
 36
0.0
 17
0.0
 27
1.0
 37
0.0
 76
     0
330
36
331
4F
  0
MATERIAL
  5
12
102
{ACAD_REACTORS
330
10
102
}
330
10
100
AcDbMaterial
  1
ByBlock
  0
MATERIAL
  5
11
102
{ACAD_REACTORS
330
10
102
}
330
10
100
AcDbMaterial
  1
ByLayer
  0
MATERIAL
  5
13
102
{ACAD_REACTORS
330
10
102
}
330
10
100
AcDbMaterial
  1
Global
  0
MLINESTYLE
  5
2C
102
{ACAD_REACTORS
330
2B
102
}
330
2B
100
AcDbMlineStyle
  2
STANDARD
 70
     0
  3

 62
   256
 51
90.0
 52
90.0
 71
     2
 49
0.5
 62
   256
  6
BYLAYER
 49
-0.5
 62
   256
  6
BYLAYER
  0
ACDBPLACEHOLDER
  5
F
102
{ACAD_REACTORS
330
E
102
}
330
E
  0
TABLESTYLE
  5
31
102
{ACAD_REACTORS
330
30
102
}
330
30
100
AcDbTableStyle
  3
Standard
 70
     0
 71
     0
 40
0.06
 41
0.06
280
     0
281
     0
  7
STANDARD
140
0.18
170
     2
 62
     0
 63
     7
283
     0
 90
      512
 91
        0
  1

274
    -2
284
     1
 64
     0
275
    -2
285
     1
 65
     0
276
    -2
286
     1
 66
     0
277
    -2
287
     1
 67
     0
278
    -2
288
     1
 68
     0
279
    -2
289
     1
 69
     0
  7
STANDARD
140
0.25
170
     5
 62
     0
 63
     7
283
     0
 90
      512
 91
        0
  1

274
    -2
284
     1
 64
     0
275
    -2
285
     1
 65
     0
276
    -2
286
     1
 66
     0
277
    -2
287
     1
 67
     0
278
    -2
288
     1
 68
     0
279
    -2
289
     1
 69
     0
  7
STANDARD
140
0.18
170
     5
 62
     0
 63
     7
283
     0
 90
      512
 91
        0
  1

274
    -2
284
     1
 64
     0
275
    -2
285
     1
 65
     0
276
    -2
286
     1
 66
     0
277
    -2
287
     1
 67
     0
278
    -2
288
     1
 68
     0
279
    -2
289
     1
 69
     0
  0
VISUALSTYLE
  5
1A
102
{ACAD_REACTORS
330
14
102
}
330
14
100
AcDbVisualStyle
  2
2dWireframe
 70
     4
 71
     0
 72
     2
 73
     0
 90
        0
 40
-0.6
 41
-30.0
 62
     5
 63
     7
421
 16777215
 74
     1
 91
        4
 64
     7
 65
   257
 75
     1
175
     1
 42
1.0
 92
        0
 66
   257
 43
1.0
 76
     1
 77
     6
 78
     2
 67
     7
 79
     5
170
     0
171
     0
290
     0
174
     0
 93
        1
 44
0.0
173
     0
291
     0
 45
0.0
  0
VISUALSTYLE
  5
1C
102
{ACAD_REACTORS
330
14
102
}
330
14
100
AcDbVisualStyle
  2
3D Hidden
 70
     6
 71
     1
 72
     2
 73
     2
 90
        0
 40
-0.6
 41
-30.0
 62
     5
 63
     7
421
 16777215
 74
     2
 91
        2
 64
     7
 65
   257
 75
     2
175
     1
 42
40.0
 92
        0
 66
   257
 43
1.0
 76
     1
 77
     6
 78
     2
 67
     7
 79
     3
170
     0
171
     0
290
     0
174
     0
 93
        1
 44
0.0
173
     0
291
     0
 45
0.0
  0
VISUALSTYLE
  5
1B
102
{ACAD_REACTORS
330
14
102
}
330
14
100
AcDbVisualStyle
  2
3dWireframe
 70
     5
 71
     0
 72
     2
 73
     0
 90
        0
 40
-0.6
 41
-30.0
 62
     5
 63
     7
421
 16777215
 74
     1
 91
        4
 64
     7
 65
   257
 75
     1
175
     1
 42
1.0
 92
        0
 66
   257
 43
1.0
 76
     1
 77
     6
 78
     2
 67
     7
 79
     5
170
     0
171
     0
290
     0
174
     0
 93
        1
 44
0.0
173
     0
291
     0
 45
0.0
  0
VISUALSTYLE
  5
19
102
{ACAD_REACTORS
330
14
102
}
330
14
100
AcDbVisualStyle
  2
Basic
 70
     7
 71
     1
 72
     0
 73
     1
 90
        0
 40
-0.6
 41
-30.0
 62
     5
 63
     7
421
 16777215
 74
     0
 91
        4
 64
     7
 65
   257
 75
     1
175
     1
 42
1.0
 92
        8
 66
     7
 43
1.0
 76
     1
 77
     6
 78
     2
 67
     7
 79
     5
170
     0
171
     0
290
     0
174
     0
 93
        1
 44
0.0
173
     0
291
     1
 45
0.0
  0
VISUALSTYLE
  5
20
102
{ACAD_REACTORS
330
14
102
}
330
14
100
AcDbVisualStyle
  2
Brighten
 70
    12
 71
     2
 72
     2
 73
     0
 90
        0
 40
-0.6
 41
-30.0
 62
     5
 63
     7
421
 16777215
 74
     1
 91
        4
 64
     7
 65
   257
 75
     1
175
     1
 42
1.0
 92
        8
 66
     7
 43
1.0
 76
     1
 77
     6
 78
     2
 67
     7
 79
     5
170
     0
171
     0
290
     0
174
     0
 93
        1
 44
50.0
173
     0
291
     1
 45
0.0
  0
VISUALSTYLE
  5
24
102
{ACAD_REACTORS
330
14
102
}
330
14
100
AcDbVisualStyle
  2
ColorChange
 70
    16
 71
     2
 72
     2
 73
     3
 90
        0
 40
-0.6
 41
-30.0
 62
     5
 63
     8
421
  8421504
 74
     1
 91
        4
 64
     7
 65
   257
 75
     1
175
     1
 42
1.0
 92
        8
 66
     8
424
  8421504
 43
1.0
 76
     1
 77
     6
 78
     2
 67
     7
 79
     5
170
     0
171
     0
290
     0
174
     0
 93
        1
 44
0.0
173
     0
291
     1
 45
0.0
  0
VISUALSTYLE
  5
1D
102
{ACAD_REACTORS
330
14
102
}
330
14
100
AcDbVisualStyle
  2
Conceptual
 70
     9
 71
     3
 72
     2
 73
     0
 90
        0
 40
-0.6
 41
-30.0
 62
     5
 63
     7
421
 16777215
 74
     2
 91
        2
 64
     7
 65
   257
 75
     1
175
     1
 42
40.0
 92
        8
 66
     7
 43
1.0
 76
     1
 77
     6
 78
     2
 67
     7
 79
     3
170
     0
171
     0
290
     0
174
     0
 93
        1
 44
0.0
173
     0
291
     0
 45
0.0
  0
VISUALSTYLE
  5
1F
102
{ACAD_REACTORS
330
14
102
}
330
14
100
AcDbVisualStyle
  2
Dim
 70
    11
 71
     2
 72
     2
 73
     0
 90
        0
 40
-0.6
 41
-30.0
 62
     5
 63
     7
421
 16777215
 74
     1
 91
        4
 64
     7
 65
   257
 75
     1
175
     1
 42
1.0
 92
        8
 66
     7
 43
1.0
 76
     1
 77
     6
 78
     2
 67
     7
 79
     5
170
     0
171
     0
290
     0
174
     0
 93
        1
 44
-50.0
173
     0
291
     1
 45
0.0
  0
VISUALSTYLE
  5
23
102
{ACAD_REACTORS
330
14
102
}
330
14
100
AcDbVisualStyle
  2
Facepattern
 70
    15
 71
     2
 72
     2
 73
     0
 90
        0
 40
-0.6
 41
-30.0
 62
     5
 63
     7
421
 16777215
 74
     1
 91
        4
 64
     7
 65
   257
 75
     1
175
     1
 42
1.0
 92
        8
 66
     7
 43
1.0
 76
     1
 77
     6
 78
     2
 67
     7
 79
     5
170
     0
171
     0
290
     0
174
     0
 93
        1
 44
0.0
173
     0
291
     1
 45
0.0
  0
VISUALSTYLE
  5
15
102
{ACAD_REACTORS
330
14
102
}
330
14
100
AcDbVisualStyle
  2
Flat
 70
     0
 71
     2
 72
     1
 73
     1
 90
        2
 40
-0.6
 41
30.0
 62
     5
 63
     7
421
 16777215
 74
     0
 91
        4
 64
     7
 65
   257
 75
     1
175
     1
 42
1.0
 92
        8
 66
     7
 43
1.0
 76
     1
 77
     6
 78
     2
 67
     7
 79
     5
170
     0
171
     0
290
     0
174
     0
 93
       13
 44
0.0
173
     0
291
     1
 45
0.0
  0
VISUALSTYLE
  5
16
102
{ACAD_REACTORS
330
14
102
}
330
14
100
AcDbVisualStyle
  2
FlatWithEdges
 70
     1
 71
     2
 72
     1
 73
     1
 90
        2
 40
-0.6
 41
30.0
 62
     5
 63
     7
421
 16777215
 74
     1
 91
        4
 64
     7
 65
   257
 75
     1
175
     1
 42
1.0
 92
        0
 66
   257
 43
1.0
 76
     1
 77
     6
 78
     2
 67
     7
 79
     5
170
     0
171
     0
290
     0
174
     0
 93
       13
 44
0.0
173
     0
291
     1
 45
0.0
  0
VISUALSTYLE
  5
17
102
{ACAD_REACTORS
330
14
102
}
330
14
100
AcDbVisualStyle
  2
Gouraud
 70
     2
 71
     2
 72
     2
 73
     1
 90
        2
 40
-0.6
 41
30.0
 62
     5
 63
     7
421
 16777215
 74
     0
 91
        4
 64
     7
 65
   257
 75
     1
175
     1
 42
1.0
 92
        0
 66
     7
 43
1.0
 76
     1
 77
     6
 78
     2
 67
     7
 79
     5
170
     0
171
     0
290
     0
174
     0
 93
       13
 44
0.0
173
     0
291
     1
 45
0.0
  0
VISUALSTYLE
  5
18
102
{ACAD_REACTORS
330
14
102
}
330
14
100
AcDbVisualStyle
  2
GouraudWithEdges
 70
     3
 71
     2
 72
     2
 73
     1
 90
        2
 40
-0.6
 41
30.0
 62
     5
 63
     7
421
 16777215
 74
     1
 91
        4
 64
     7
 65
   257
 75
     1
175
     1
 42
1.0
 92
        0
 66
   257
 43
1.0
 76
     1
 77
     6
 78
     2
 67
     7
 79
     5
170
     0
171
     0
290
     0
174
     0
 93
       13
 44
0.0
173
     0
291
     1
 45
0.0
  0
VISUALSTYLE
  5
22
102
{ACAD_REACTORS
330
14
102
}
330
14
100
AcDbVisualStyle
  2
Linepattern
 70
    14
 71
     2
 72
     2
 73
     0
 90
        0
 40
-0.6
 41
-30.0
 62
     5
 63
     7
421
 16777215
 74
     1
 91
        4
 64
     7
 65
   257
 75
     7
175
     7
 42
1.0
 92
        8
 66
     7
 43
1.0
 76
     1
 77
     6
 78
     2
 67
     7
 79
     5
170
     0
171
     0
290
     0
174
     0
 93
        1
 44
0.0
173
     0
291
     1
 45
0.0
  0
VISUALSTYLE
  5
1E
102
{ACAD_REACTORS
330
14
102
}
330
14
100
AcDbVisualStyle
  2
Realistic
 70
     8
 71
     2
 72
     2
 73
     0
 90
        0
 40
-0.6
 41
-30.0
 62
     5
 63
     7
421
 16777215
 74
     1
 91
        0
 64
     7
 65
   257
 75
     1
175
     1
 42
1.0
 92
        8
 66
     8
424
  7895160
 43
1.0
 76
     1
 77
     6
 78
     2
 67
     7
 79
     5
170
     0
171
     0
290
     0
174
     0
 93
       13
 44
0.0
173
     0
291
     0
 45
0.0
  0
VISUALSTYLE
  5
21
102
{ACAD_REACTORS
330
14
102
}
330
14
100
AcDbVisualStyle
  2
Thicken
 70
    13
 71
     2
 72
     2
 73
     0
 90
        0
 40
-0.6
 41
-30.0
 62
     5
 63
     7
421
 16777215
 74
     1
 91
        4
 64
     7
 65
   257
 75
     1
175
     1
 42
1.0
 92
       12
 66
     7
 43
1.0
 76
     1
 77
     6
 78
     2
 67
     7
 79
     5
170
     0
171
     0
290
     0
174
     0
 93
        1
 44
0.0
173
     0
291
     1
 45
0.0
  0
DICTIONARYVAR
  5
A7
102
{ACAD_REACTORS
330
A6
102
}
330
A6
100
DictionaryVariables
280
     0
  1
STANDARD
  0
ENDSEC
  0
EOF
