  0
SECTION
  2
HEADER
  9
$ACADVER
  1
AC1018
  9
$ACADMAINTVER
 70
     0
  9
$DWGCODEPAGE
  3
ANSI_1252
  9
$INSBASE
 10
0.0
 20
0.0
 30
0.0
  9
$EXTMIN
 10
-556.835595497058
 20
-490.6645015993104
 30
0.0
  9
$EXTMAX
 10
604.8716334186053
 20
320.2692254348103
 30
0.0
  9
$LIMMIN
 10
0.0
 20
0.0
  9
$LIMMAX
 10
12.0
 20
9.0
  9
$ORTHOMODE
 70
     0
  9
$REGENMODE
 70
     1
  9
$FILLMODE
 70
     1
  9
$QTEXTMODE
 70
     0
  9
$MIRRTEXT
 70
     1
  9
$LTSCALE
 40
1.0
  9
$ATTMODE
 70
     1
  9
$TEXTSIZE
 40
0.2
  9
$TRACEWID
 40
0.05
  9
$TEXTSTYLE
  7
Standard
  9
$CLAYER
  8
DEFAULT
  9
$CELTYPE
  6
ByLayer
  9
$CECOLOR
 62
   256
  9
$CELTSCALE
 40
1.0
  9
$DISPSILH
 70
     0
  9
$DIMSCALE
 40
1.0
  9
$DIMASZ
 40
0.18
  9
$DIMEXO
 40
0.0625
  9
$DIMDLI
 40
0.38
  9
$DIMRND
 40
0.0
  9
$DIMDLE
 40
0.0
  9
$DIMEXE
 40
0.18
  9
$DIMTP
 40
0.0
  9
$DIMTM
 40
0.0
  9
$DIMTXT
 40
0.18
  9
$DIMCEN
 40
0.09
  9
$DIMTSZ
 40
0.0
  9
$DIMTOL
 70
     0
  9
$DIMLIM
 70
     0
  9
$DIMTIH
 70
     1
  9
$DIMTOH
 70
     1
  9
$DIMSE1
 70
     0
  9
$DIMSE2
 70
     0
  9
$DIMTAD
 70
     0
  9
$DIMZIN
 70
     0
  9
$DIMBLK
  1

  9
$DIMASO
 70
     1
  9
$DIMSHO
 70
     1
  9
$DIMPOST
  1

  9
$DIMAPOST
  1

  9
$DIMALT
 70
     0
  9
$DIMALTD
 70
     2
  9
$DIMALTF
 40
25.4
  9
$DIMLFAC
 40
1.0
  9
$DIMTOFL
 70
     0
  9
$DIMTVP
 40
0.0
  9
$DIMTIX
 70
     0
  9
$DIMSOXD
 70
     0
  9
$DIMSAH
 70
     0
  9
$DIMBLK1
  1

  9
$DIMBLK2
  1

  9
$DIMSTYLE
  2
Standard
  9
$DIMCLRD
 70
     0
  9
$DIMCLRE
 70
     0
  9
$DIMCLRT
 70
     0
  9
$DIMTFAC
 40
1.0
  9
$DIMGAP
 40
0.09
  9
$DIMJUST
 70
     0
  9
$DIMSD1
 70
     0
  9
$DIMSD2
 70
     0
  9
$DIMTOLJ
 70
     1
  9
$DIMTZIN
 70
     0
  9
$DIMALTZ
 70
     0
  9
$DIMALTTZ
 70
     0
  9
$DIMUPT
 70
     0
  9
$DIMDEC
 70
     4
  9
$DIMTDEC
 70
     4
  9
$DIMALTU
 70
     2
  9
$DIMALTTD
 70
     2
  9
$DIMTXSTY
  7
Standard
  9
$DIMAUNIT
 70
     0
  9
$DIMADEC
 70
     0
  9
$DIMALTRND
 40
0.0
  9
$DIMAZIN
 70
     0
  9
$DIMDSEP
 70
    46
  9
$DIMATFIT
 70
     3
  9
$DIMFRAC
 70
     0
  9
$DIMLDRBLK
  1

  9
$DIMLUNIT
 70
     2
  9
$DIMLWD
 70
    -2
  9
$DIMLWE
 70
    -2
  9
$DIMTMOVE
 70
     0
  9
$LUNITS
 70
     2
  9
$LUPREC
 70
     3
  9
$SKETCHINC
 40
0.1
  9
$FILLETRAD
 40
0.5
  9
$AUNITS
 70
     0
  9
$AUPREC
 70
     0
  9
$MENU
  1
.
  9
$ELEVATION
 40
0.0
  9
$PELEVATION
 40
0.0
  9
$THICKNESS
 40
0.0
  9
$LIMCHECK
 70
     0
  9
$CHAMFERA
 40
0.5
  9
$CHAMFERB
 40
0.5
  9
$CHAMFERC
 40
1.0
  9
$CHAMFERD
 40
0.0
  9
$SKPOLY
 70
     0
  9
$TDCREATE
 40
2454710.562418981
  9
$TDUCREATE
 40
2454710.479085648
  9
$TDUPDATE
 40
2454710.562418993
  9
$TDUUPDATE
 40
2454710.47908566
  9
$TDINDWG
 40
0.0000000116
  9
$TDUSRTIMER
 40
0.0000000116
  9
$USRTIMER
 70
     1
  9
$ANGBASE
 50
0.0
  9
$ANGDIR
 70
     0
  9
$PDMODE
 70
     0
  9
$PDSIZE
 40
0.0
  9
$PLINEWID
 40
0.0
  9
$SPLFRAME
 70
     0
  9
$SPLINETYPE
 70
     6
  9
$SPLINESEGS
 70
     8
  9
$HANDSEED
  5
3A2
  9
$SURFTAB1
 70
     6
  9
$SURFTAB2
 70
     6
  9
$SURFTYPE
 70
     6
  9
$SURFU
 70
     6
  9
$SURFV
 70
     6
  9
$UCSBASE
  2

  9
$UCSNAME
  2

  9
$UCSORG
 10
0.0
 20
0.0
 30
0.0
  9
$UCSXDIR
 10
1.0
 20
0.0
 30
0.0
  9
$UCSYDIR
 10
0.0
 20
1.0
 30
0.0
  9
$UCSORTHOREF
  2

  9
$UCSORTHOVIEW
 70
     0
  9
$UCSORGTOP
 10
0.0
 20
0.0
 30
0.0
  9
$UCSORGBOTTOM
 10
0.0
 20
0.0
 30
0.0
  9
$UCSORGLEFT
 10
0.0
 20
0.0
 30
0.0
  9
$UCSORGRIGHT
 10
0.0
 20
0.0
 30
0.0
  9
$UCSORGFRONT
 10
0.0
 20
0.0
 30
0.0
  9
$UCSORGBACK
 10
0.0
 20
0.0
 30
0.0
  9
$PUCSBASE
  2

  9
$PUCSNAME
  2

  9
$PUCSORG
 10
0.0
 20
0.0
 30
0.0
  9
$PUCSXDIR
 10
1.0
 20
0.0
 30
0.0
  9
$PUCSYDIR
 10
0.0
 20
1.0
 30
0.0
  9
$PUCSORTHOREF
  2

  9
$PUCSORTHOVIEW
 70
     0
  9
$PUCSORGTOP
 10
0.0
 20
0.0
 30
0.0
  9
$PUCSORGBOTTOM
 10
0.0
 20
0.0
 30
0.0
  9
$PUCSORGLEFT
 10
0.0
 20
0.0
 30
0.0
  9
$PUCSORGRIGHT
 10
0.0
 20
0.0
 30
0.0
  9
$PUCSORGFRONT
 10
0.0
 20
0.0
 30
0.0
  9
$PUCSORGBACK
 10
0.0
 20
0.0
 30
0.0
  9
$USERI1
 70
     0
  9
$USERI2
 70
     0
  9
$USERI3
 70
     0
  9
$USERI4
 70
     0
  9
$USERI5
 70
     0
  9
$USERR1
 40
0.0
  9
$USERR2
 40
0.0
  9
$USERR3
 40
0.0
  9
$USERR4
 40
0.0
  9
$USERR5
 40
0.0
  9
$WORLDVIEW
 70
     1
  9
$SHADEDGE
 70
     3
  9
$SHADEDIF
 70
    70
  9
$TILEMODE
 70
     1
  9
$MAXACTVP
 70
    64
  9
$PINSBASE
 10
0.0
 20
0.0
 30
0.0
  9
$PLIMCHECK
 70
     0
  9
$PEXTMIN
 10
1.000000000000000E+20
 20
1.000000000000000E+20
 30
1.000000000000000E+20
  9
$PEXTMAX
 10
-1.000000000000000E+20
 20
-1.000000000000000E+20
 30
-1.000000000000000E+20
  9
$PLIMMIN
 10
0.0
 20
0.0
  9
$PLIMMAX
 10
12.0
 20
9.0
  9
$UNITMODE
 70
     0
  9
$VISRETAIN
 70
     1
  9
$PLINEGEN
 70
     0
  9
$PSLTSCALE
 70
     1
  9
$TREEDEPTH
 70
  3020
  9
$CMLSTYLE
  2
Standard
  9
$CMLJUST
 70
     0
  9
$CMLSCALE
 40
1.0
  9
$PROXYGRAPHICS
 70
     1
  9
$MEASUREMENT
 70
     0
  9
$CELWEIGHT
370
    -1
  9
$ENDCAPS
280
     0
  9
$JOINSTYLE
280
     0
  9
$LWDISPLAY
290
     0
  9
$INSUNITS
 70
     4
  9
$HYPERLINKBASE
  1

  9
$STYLESHEET
  1

  9
$XEDIT
290
     1
  9
$CEPSNTYPE
380
     0
  9
$PSTYLEMODE
290
     1
  9
$FINGERPRINTGUID
  2
{F81BC09E-4A3D-48C7-BFEF-B5A49B1685CE}
  9
$VERSIONGUID
  2
{FAEB1C32-E019-11D5-929B-00C0DF256EC4}
  9
$EXTNAMES
290
     1
  9
$PSVPSCALE
 40
0.0
  9
$OLESTARTUP
290
     0
  9
$SORTENTS
280
   127
  9
$INDEXCTL
280
     0
  9
$HIDETEXT
280
     1
  9
$XCLIPFRAME
290
     0
  9
$HALOGAP
280
     0
  9
$OBSCOLOR
 70
   257
  9
$OBSLTYPE
280
     0
  9
$INTERSECTIONDISPLAY
280
     0
  9
$INTERSECTIONCOLOR
 70
   257
  9
$DIMASSOC
280
     2
  9
$PROJECTNAME
  1

  0
ENDSEC
  0
SECTION
  2
CLASSES
  0
CLASS
  1
ACDBDICTIONARYWDFLT
  2
AcDbDictionaryWithDefault
  3
ObjectDBX Classes
 90
        0
 91
        3
280
     0
281
     0
  0
ENDSEC
  0
SECTION
  2
TABLES
  0
TABLE
  2
VPORT
  5
8
330
0
100
AcDbSymbolTable
 70
     1
  0
VPORT
  5
29
330
8
100
AcDbSymbolTableRecord
100
AcDbViewportTableRecord
  2
*Active
 70
     0
 10
0.0
 20
0.0
 11
1.0
 21
1.0
 12
0.0
 22
0.0
 13
0.0
 23
0.0
 14
0.5
 24
0.5
 15
0.5
 25
0.5
 16
0.0
 26
0.0
 36
1.0
 17
22.16440450294249
 27
-84.73077456518968
 37
0.0
 40
826.2
 41
1.429629629629631
 42
50.0
 43
0.0
 44
0.0
 50
0.0
 51
0.0
 71
     0
 72
   100
 73
     1
 74
     3
 75
     0
 76
     0
 77
     0
 78
     0
281
     0
 65
     1
110
0.0
120
0.0
130
0.0
111
1.0
121
0.0
131
0.0
112
0.0
122
1.0
132
0.0
 79
     0
146
0.0
  0
ENDTAB
  0
TABLE
  2
LTYPE
  5
5
330
0
100
AcDbSymbolTable
 70
     1
  0
LTYPE
  5
14
330
5
100
AcDbSymbolTableRecord
100
AcDbLinetypeTableRecord
  2
ByBlock
 70
     0
  3

 72
    65
 73
     0
 40
0.0
  0
LTYPE
  5
15
330
5
100
AcDbSymbolTableRecord
100
AcDbLinetypeTableRecord
  2
ByLayer
 70
     0
  3

 72
    65
 73
     0
 40
0.0
  0
LTYPE
  5
16
330
5
100
AcDbSymbolTableRecord
100
AcDbLinetypeTableRecord
  2
Continuous
 70
     0
  3
Solid line
 72
    65
 73
     0
 40
0.0
  0
ENDTAB
  0
TABLE
  2
LAYER
  5
2
330
0
100
AcDbSymbolTable
 70
     9
  0
LAYER
  5
10
330
2
100
AcDbSymbolTableRecord
100
AcDbLayerTableRecord
  2
0
 70
     0
 62
     7
  6
Continuous
370
    -3
390
F
  0
LAYER
  5
2A
330
2
100
AcDbSymbolTableRecord
100
AcDbLayerTableRecord
  2
LAYER 01
 70
     0
 62
     7
  6
Continuous
370
    -3
390
F
  0
LAYER
  5
2C
330
2
100
AcDbSymbolTableRecord
100
AcDbLayerTableRecord
  2
DEFAULT
 70
     0
 62
     1
  6
Continuous
370
    30
390
F
  0
LAYER
  5
42
330
2
100
AcDbSymbolTableRecord
100
AcDbLayerTableRecord
  2
MAKE2D VISIBLE LINES
 70
     0
 62
     7
  6
Continuous
370
    -3
390
F
  0
LAYER
  5
15C
330
2
100
AcDbSymbolTableRecord
100
AcDbLayerTableRecord
  2
LAYER 02
 70
     0
 62
   150
  6
Continuous
370
    -3
390
F
  0
LAYER
  5
160
330
2
100
AcDbSymbolTableRecord
100
AcDbLayerTableRecord
  2
Defpoints
 70
     0
 62
     7
  6
Continuous
290
     0
370
    -3
390
F
  0
LAYER
  5
171
330
2
100
AcDbSymbolTableRecord
100
AcDbLayerTableRecord
  2
FRAME 070
 70
     0
 62
   150
  6
Continuous
370
    -3
390
F
  0
LAYER
  5
175
330
2
100
AcDbSymbolTableRecord
100
AcDbLayerTableRecord
  2
FRAME 050
 70
     0
 62
     6
  6
Continuous
370
    -3
390
F
  0
LAYER
  5
310
330
2
100
AcDbSymbolTableRecord
100
AcDbLayerTableRecord
  2
LAYER 05
 70
     0
 62
     7
  6
Continuous
370
    -3
390
F
  0
ENDTAB
  0
TABLE
  2
STYLE
  5
3
330
0
100
AcDbSymbolTable
 70
     2
  0
STYLE
  5
11
330
3
100
AcDbSymbolTableRecord
100
AcDbTextStyleTableRecord
  2
Standard
 70
     0
 40
0.0
 41
1.0
 50
0.0
 71
     0
 42
0.2
  3
txt
  4

  0
STYLE
  5
15E
330
3
100
AcDbSymbolTableRecord
100
AcDbTextStyleTableRecord
  2
TAHOMA
 70
     0
 40
0.0
 41
1.0
 50
0.0
 71
     0
 42
0.0
  3
TAHOMA.TTF
  4

1001
ACAD
1000
Tahoma
1071
      256
  0
ENDTAB
  0
TABLE
  2
VIEW
  5
6
330
0
100
AcDbSymbolTable
 70
     0
  0
ENDTAB
  0
TABLE
  2
UCS
  5
7
330
0
100
AcDbSymbolTable
 70
     0
  0
ENDTAB
  0
TABLE
  2
APPID
  5
9
330
0
100
AcDbSymbolTable
 70
     1
  0
APPID
  5
12
330
9
100
AcDbSymbolTableRecord
100
AcDbRegAppTableRecord
  2
ACAD
 70
     0
  0
ENDTAB
  0
TABLE
  2
DIMSTYLE
  5
A
330
0
100
AcDbSymbolTable
 70
     2
100
AcDbDimStyleTable
  0
DIMSTYLE
105
27
330
A
100
AcDbSymbolTableRecord
100
AcDbDimStyleTableRecord
  2
Standard
 70
     0
340
11
  0
DIMSTYLE
105
15F
102
{ACAD_REACTORS
330
15D
330
1E5
330
1F4
330
203
330
211
330
21F
330
22D
330
23B
330
249
330
257
330
265
330
274
330
282
330
290
330
29E
330
2AC
330
2BA
330
2C8
330
2D6
330
2E6
330
2F4
330
302
330
32E
330
346
330
354
330
362
330
372
330
380
330
394
102
}
330
A
100
AcDbSymbolTableRecord
100
AcDbDimStyleTableRecord
  2
DIMENSION STYLE 01
 70
     0
 40
8.0
 41
1.0
 42
0.25
 44
0.5
 73
     0
140
1.0
141
0.5
271
     0
340
15E
  0
ENDTAB
  0
TABLE
  2
BLOCK_RECORD
  5
1
330
0
100
AcDbSymbolTable
 70
    30
  0
BLOCK_RECORD
  5
1F
330
1
100
AcDbSymbolTableRecord
100
AcDbBlockTableRecord
  2
*Model_Space
340
22
  0
BLOCK_RECORD
  5
1B
330
1
100
AcDbSymbolTableRecord
100
AcDbBlockTableRecord
  2
*Paper_Space
340
1E
  0
BLOCK_RECORD
  5
23
330
1
100
AcDbSymbolTableRecord
100
AcDbBlockTableRecord
  2
*Paper_Space0
340
26
  0
BLOCK_RECORD
  5
161
330
1
100
AcDbSymbolTableRecord
100
AcDbBlockTableRecord
  2
*D1
340
0
  0
BLOCK_RECORD
  5
1E6
330
1
100
AcDbSymbolTableRecord
100
AcDbBlockTableRecord
  2
*D2
340
0
  0
BLOCK_RECORD
  5
1F5
330
1
100
AcDbSymbolTableRecord
100
AcDbBlockTableRecord
  2
*D3
340
0
  0
BLOCK_RECORD
  5
204
330
1
100
AcDbSymbolTableRecord
100
AcDbBlockTableRecord
  2
*D4
340
0
  0
BLOCK_RECORD
  5
212
330
1
100
AcDbSymbolTableRecord
100
AcDbBlockTableRecord
  2
*D5
340
0
  0
BLOCK_RECORD
  5
220
330
1
100
AcDbSymbolTableRecord
100
AcDbBlockTableRecord
  2
*D6
340
0
  0
BLOCK_RECORD
  5
22E
330
1
100
AcDbSymbolTableRecord
100
AcDbBlockTableRecord
  2
*D7
340
0
  0
BLOCK_RECORD
  5
23C
330
1
100
AcDbSymbolTableRecord
100
AcDbBlockTableRecord
  2
*D8
340
0
  0
BLOCK_RECORD
  5
24A
330
1
100
AcDbSymbolTableRecord
100
AcDbBlockTableRecord
  2
*D9
340
0
  0
BLOCK_RECORD
  5
258
330
1
100
AcDbSymbolTableRecord
100
AcDbBlockTableRecord
  2
*D10
340
0
  0
BLOCK_RECORD
  5
266
330
1
100
AcDbSymbolTableRecord
100
AcDbBlockTableRecord
  2
*D11
340
0
  0
BLOCK_RECORD
  5
275
330
1
100
AcDbSymbolTableRecord
100
AcDbBlockTableRecord
  2
*D12
340
0
  0
BLOCK_RECORD
  5
283
330
1
100
AcDbSymbolTableRecord
100
AcDbBlockTableRecord
  2
*D13
340
0
  0
BLOCK_RECORD
  5
291
330
1
100
AcDbSymbolTableRecord
100
AcDbBlockTableRecord
  2
*D14
340
0
  0
BLOCK_RECORD
  5
29F
330
1
100
AcDbSymbolTableRecord
100
AcDbBlockTableRecord
  2
*D15
340
0
  0
BLOCK_RECORD
  5
2AD
330
1
100
AcDbSymbolTableRecord
100
AcDbBlockTableRecord
  2
*D16
340
0
  0
BLOCK_RECORD
  5
2BB
330
1
100
AcDbSymbolTableRecord
100
AcDbBlockTableRecord
  2
*D17
340
0
  0
BLOCK_RECORD
  5
2C9
330
1
100
AcDbSymbolTableRecord
100
AcDbBlockTableRecord
  2
*D18
340
0
  0
BLOCK_RECORD
  5
2D7
330
1
100
AcDbSymbolTableRecord
100
AcDbBlockTableRecord
  2
*D19
340
0
  0
BLOCK_RECORD
  5
2E7
330
1
100
AcDbSymbolTableRecord
100
AcDbBlockTableRecord
  2
*D20
340
0
  0
BLOCK_RECORD
  5
2F5
330
1
100
AcDbSymbolTableRecord
100
AcDbBlockTableRecord
  2
*D21
340
0
  0
BLOCK_RECORD
  5
303
330
1
100
AcDbSymbolTableRecord
100
AcDbBlockTableRecord
  2
*D22
340
0
  0
BLOCK_RECORD
  5
32F
330
1
100
AcDbSymbolTableRecord
100
AcDbBlockTableRecord
  2
*D23
340
0
  0
BLOCK_RECORD
  5
347
330
1
100
AcDbSymbolTableRecord
100
AcDbBlockTableRecord
  2
*D24
340
0
  0
BLOCK_RECORD
  5
355
330
1
100
AcDbSymbolTableRecord
100
AcDbBlockTableRecord
  2
*D25
340
0
  0
BLOCK_RECORD
  5
363
330
1
100
AcDbSymbolTableRecord
100
AcDbBlockTableRecord
  2
*D26
340
0
  0
BLOCK_RECORD
  5
373
330
1
100
AcDbSymbolTableRecord
100
AcDbBlockTableRecord
  2
*D27
340
0
  0
BLOCK_RECORD
  5
381
330
1
100
AcDbSymbolTableRecord
100
AcDbBlockTableRecord
  2
*D28
340
0
  0
BLOCK_RECORD
  5
395
330
1
100
AcDbSymbolTableRecord
100
AcDbBlockTableRecord
  2
*D29
340
0
  0
ENDTAB
  0
ENDSEC
  0
SECTION
  2
BLOCKS
  0
BLOCK
  5
20
330
1F
100
AcDbEntity
  8
0
100
AcDbBlockBegin
  2
*Model_Space
 70
     0
 71
     0
 10
0.0
 20
0.0
 30
0.0
  3
*Model_Space
  1

  0
ENDBLK
  5
21
330
1F
100
AcDbEntity
  8
0
100
AcDbBlockEnd
  0
BLOCK
  5
1C
330
1B
100
AcDbEntity
 67
     1
  8
0
100
AcDbBlockBegin
  2
*Paper_Space
 70
     0
 71
     0
 10
0.0
 20
0.0
 30
0.0
  3
*Paper_Space
  1

  0
ENDBLK
  5
1D
330
1B
100
AcDbEntity
 67
     1
  8
0
100
AcDbBlockEnd
  0
BLOCK
  5
24
330
23
100
AcDbEntity
  8
0
100
AcDbBlockBegin
  2
*Paper_Space0
 70
     0
 71
     0
 10
0.0
 20
0.0
 30
0.0
  3
*Paper_Space0
  1

  0
ENDBLK
  5
25
330
23
100
AcDbEntity
  8
0
100
AcDbBlockEnd
  0
BLOCK
  5
16C
330
161
100
AcDbEntity
  8
0
100
AcDbBlockBegin
  2
*D1
 70
     1
 71
     0
 10
0.0
 20
0.0
 30
0.0
  3
*D1
  1

  0
LINE
  5
162
330
161
100
AcDbEntity
  8
LAYER 02
 62
     0
370
    -2
100
AcDbLine
 10
9.362917419152808
 20
-110.1968812969985
 30
0.0
 11
19.38102680874864
 21
-110.1968812969985
 31
0.0
  0
LINE
  5
163
330
161
100
AcDbEntity
  8
LAYER 02
 62
     0
370
    -2
100
AcDbLine
 10
355.411745985944
 20
-220.0628677262042
 30
0.0
 11
11.38102680874863
 21
-220.0628677262042
 31
0.0
  0
LINE
  5
164
330
161
100
AcDbEntity
  8
LAYER 02
 62
     0
370
    -2
100
AcDbLine
 10
15.38102680874864
 20
-118.1968812969985
 30
0.0
 11
15.38102680874864
 21
-156.2298745116013
 31
0.0
  0
LINE
  5
165
330
161
100
AcDbEntity
  8
LAYER 02
 62
     0
370
    -2
100
AcDbLine
 10
15.38102680874863
 20
-212.0628677262042
 30
0.0
 11
15.38102680874864
 21
-174.0298745116013
 31
0.0
  0
SOLID
  5
166
330
161
100
AcDbEntity
  8
LAYER 02
 62
     0
100
AcDbTrace
 10
16.71436014208197
 20
-118.1968812969985
 30
0.0
 11
14.04769347541531
 21
-118.1968812969985
 31
0.0
 12
15.38102680874864
 22
-110.1968812969985
 32
0.0
 13
15.38102680874864
 23
-110.1968812969985
 33
0.0
  0
SOLID
  5
167
330
161
100
AcDbEntity
  8
LAYER 02
 62
     0
100
AcDbTrace
 10
14.0476934754153
 20
-212.0628677262042
 30
0.0
 11
16.71436014208196
 21
-212.0628677262042
 31
0.0
 12
15.38102680874863
 22
-220.0628677262042
 32
0.0
 13
15.38102680874863
 23
-220.0628677262042
 33
0.0
  0
MTEXT
  5
168
330
161
100
AcDbEntity
  8
LAYER 02
 62
     0
100
AcDbMText
 10
15.38102680874864
 20
-165.1298745116013
 30
0.0
 40
8.0
 41
0.0
 71
     5
 72
     1
  1
\A1;110
  7
TAHOMA
 11
6.467358632582363E-17
 21
1.0
 31
0.0
 73
     1
 44
1.0
  0
POINT
  5
169
330
161
100
AcDbEntity
  8
Defpoints
 62
     0
100
AcDbPoint
 10
7.362917419152808
 20
-110.1968812969985
 30
0.0
  0
POINT
  5
16A
330
161
100
AcDbEntity
  8
Defpoints
 62
     0
100
AcDbPoint
 10
357.411745985944
 20
-220.0628677262042
 30
0.0
  0
POINT
  5
16B
330
161
100
AcDbEntity
  8
Defpoints
 62
     0
100
AcDbPoint
 10
15.38102680874863
 20
-220.0628677262042
 30
0.0
  0
ENDBLK
  5
16D
330
161
100
AcDbEntity
  8
0
100
AcDbBlockEnd
  0
BLOCK
  5
1F2
330
1E6
100
AcDbEntity
  8
0
100
AcDbBlockBegin
  2
*D2
 70
     1
 71
     0
 10
0.0
 20
0.0
 30
0.0
  3
*D2
  1

  0
LINE
  5
1E7
330
1E6
100
AcDbEntity
  8
LAYER 02
 62
     0
370
    -2
100
AcDbLine
 10
-344.3438666014786
 20
-150.4302606465778
 30
0.0
 11
-375.074551121872
 21
-150.4302606465778
 31
0.0
  0
LINE
  5
1E8
330
1E6
100
AcDbEntity
  8
LAYER 02
 62
     0
370
    -2
100
AcDbLine
 10
-344.730584604567
 20
-125.0152515509431
 30
0.0
 11
-375.074551121872
 21
-125.0152515509431
 31
0.0
  0
LINE
  5
1E9
330
1E6
100
AcDbEntity
  8
LAYER 02
 62
     0
370
    -2
100
AcDbLine
 10
-371.074551121872
 20
-117.0152515509431
 30
0.0
 11
-363.074551121872
 21
-117.0152515509431
 31
0.0
  0
LINE
  5
1EA
330
1E6
100
AcDbEntity
  8
LAYER 02
 62
     0
370
    -2
100
AcDbLine
 10
-371.074551121872
 20
-142.4302606465778
 30
0.0
 11
-371.074551121872
 21
-133.0152515509431
 31
0.0
  0
LINE
  5
1EB
330
1E6
100
AcDbEntity
  8
LAYER 02
 62
     0
370
    -2
100
AcDbLine
 10
-371.074551121872
 20
-125.0152515509431
 30
0.0
 11
-371.074551121872
 21
-117.0152515509431
 31
0.0
  0
SOLID
  5
1EC
330
1E6
100
AcDbEntity
  8
LAYER 02
 62
     0
100
AcDbTrace
 10
-372.4078844552054
 20
-142.4302606465778
 30
0.0
 11
-369.7412177885387
 21
-142.4302606465778
 31
0.0
 12
-371.074551121872
 22
-150.4302606465778
 32
0.0
 13
-371.074551121872
 23
-150.4302606465778
 33
0.0
  0
SOLID
  5
1ED
330
1E6
100
AcDbEntity
  8
LAYER 02
 62
     0
100
AcDbTrace
 10
-369.7412177885387
 20
-133.0152515509431
 30
0.0
 11
-372.4078844552054
 21
-133.0152515509431
 31
0.0
 12
-371.074551121872
 22
-125.0152515509431
 32
0.0
 13
-371.074551121872
 23
-125.0152515509431
 33
0.0
  0
MTEXT
  5
1EE
330
1E6
100
AcDbEntity
  8
LAYER 02
 62
     0
100
AcDbMText
 10
-356.9265511218721
 20
-117.0152515509431
 30
0.0
 40
8.0
 41
0.0
 71
     5
 72
     1
  1
\A1;25
  7
TAHOMA
 73
     1
 44
1.0
  0
POINT
  5
1EF
330
1E6
100
AcDbEntity
  8
Defpoints
 62
     0
100
AcDbPoint
 10
-342.3438666014786
 20
-150.4302606465778
 30
0.0
  0
POINT
  5
1F0
330
1E6
100
AcDbEntity
  8
Defpoints
 62
     0
100
AcDbPoint
 10
-342.730584604567
 20
-125.0152515509431
 30
0.0
  0
POINT
  5
1F1
330
1E6
100
AcDbEntity
  8
Defpoints
 62
     0
100
AcDbPoint
 10
-371.074551121872
 20
-125.0152515509431
 30
0.0
  0
ENDBLK
  5
1F3
330
1E6
100
AcDbEntity
  8
0
100
AcDbBlockEnd
  0
BLOCK
  5
201
330
1F5
100
AcDbEntity
  8
0
100
AcDbBlockBegin
  2
*D3
 70
     1
 71
     0
 10
0.0
 20
0.0
 30
0.0
  3
*D3
  1

  0
LINE
  5
1F6
330
1F5
100
AcDbEntity
  8
LAYER 02
 62
     0
370
    -2
100
AcDbLine
 10
-30.39278795874964
 20
-148.0942731397916
 30
0.0
 11
0.9003110678999131
 21
-142.1582388834656
 31
0.0
  0
LINE
  5
1F7
330
1F5
100
AcDbEntity
  8
LAYER 02
 62
     0
370
    -2
100
AcDbLine
 10
-34.9988348063998
 20
-123.8124927623792
 30
0.0
 11
-3.705735779750249
 21
-117.8764585060532
 31
0.0
  0
LINE
  5
1F8
330
1F5
100
AcDbEntity
  8
LAYER 02
 62
     0
370
    -2
100
AcDbLine
 10
-9.126600422436477
 20
-110.7620908935613
 30
0.0
 11
-17.12660042243647
 21
-110.7620908935613
 31
0.0
  0
LINE
  5
1F9
330
1F5
100
AcDbEntity
  8
LAYER 02
 62
     0
370
    -2
100
AcDbLine
 10
-4.520553574786314
 20
-135.0438712709737
 30
0.0
 11
-6.144711084132068
 21
-126.4817707876974
 31
0.0
  0
LINE
  5
1FA
330
1F5
100
AcDbEntity
  8
LAYER 02
 62
     0
370
    -2
100
AcDbLine
 10
-7.635655753284272
 20
-118.6219308406293
 30
0.0
 11
-9.126600422436477
 21
-110.7620908935613
 31
0.0
  0
SOLID
  5
1FB
330
1F5
100
AcDbEntity
  8
LAYER 02
 62
     0
100
AcDbTrace
 10
-5.830526899297655
 20
-135.2923620491657
 30
0.0
 11
-3.210580250274973
 21
-134.7953804927816
 31
0.0
 12
-3.02960890563411
 22
-142.9037112180417
 32
0.0
 13
-3.02960890563411
 23
-142.9037112180417
 33
0.0
  0
SOLID
  5
1FC
330
1F5
100
AcDbEntity
  8
LAYER 02
 62
     0
100
AcDbTrace
 10
-4.834737759620727
 20
-126.2332800095054
 30
0.0
 11
-7.454684408643408
 21
-126.7302615658894
 31
0.0
 12
-7.635655753284272
 22
-118.6219308406293
 32
0.0
 13
-7.635655753284272
 23
-118.6219308406293
 33
0.0
  0
MTEXT
  5
1FD
330
1F5
100
AcDbEntity
  8
LAYER 02
 62
     0
100
AcDbMText
 10
-23.27460042243648
 20
-110.7620908935613
 30
0.0
 40
8.0
 41
0.0
 71
     5
 72
     1
  1
\A1;25
  7
TAHOMA
 73
     1
 44
1.0
  0
POINT
  5
1FE
330
1F5
100
AcDbEntity
  8
Defpoints
 62
     0
100
AcDbPoint
 10
-32.35774794551665
 20
-148.4670093070796
 30
0.0
  0
POINT
  5
1FF
330
1F5
100
AcDbEntity
  8
Defpoints
 62
     0
100
AcDbPoint
 10
-36.96379479316681
 20
-124.1852289296673
 30
0.0
  0
POINT
  5
200
330
1F5
100
AcDbEntity
  8
Defpoints
 62
     0
100
AcDbPoint
 10
-7.635655753284272
 20
-118.6219308406293
 30
0.0
  0
ENDBLK
  5
202
330
1F5
100
AcDbEntity
  8
0
100
AcDbBlockEnd
  0
BLOCK
  5
20F
330
204
100
AcDbEntity
  8
0
100
AcDbBlockBegin
  2
*D4
 70
     1
 71
     0
 10
0.0
 20
0.0
 30
0.0
  3
*D4
  1

  0
LINE
  5
205
330
204
100
AcDbEntity
  8
LAYER 02
 62
     0
370
    -2
100
AcDbLine
 10
-342.8910392148983
 20
-217.9521359355889
 30
0.0
 11
-352.926198865189
 21
-185.9668640429161
 31
0.0
  0
LINE
  5
206
330
204
100
AcDbEntity
  8
LAYER 02
 62
     0
370
    -2
100
AcDbLine
 10
-32.68992591664743
 20
-120.6286644925038
 30
0.0
 11
-42.7250855669381
 21
-88.64339259983099
 31
0.0
  0
LINE
  5
207
330
204
100
AcDbEntity
  8
LAYER 02
 62
     0
370
    -2
100
AcDbLine
 10
-344.0956438201073
 20
-187.3885875025885
 30
0.0
 11
-205.3910577570007
 21
-143.8709750826791
 31
0.0
  0
LINE
  5
208
330
204
100
AcDbEntity
  8
LAYER 02
 62
     0
370
    -2
100
AcDbLine
 10
-49.160797361725
 20
-94.85480256009289
 30
0.0
 11
-187.8653834248316
 21
-138.3724149800023
 31
0.0
  0
SOLID
  5
209
330
204
100
AcDbEntity
  8
LAYER 02
 62
     0
100
AcDbTrace
 10
-344.4947843618231
 20
-186.1163985992661
 30
0.0
 11
-343.6965032783915
 21
-188.6607764059109
 31
0.0
 12
-351.7287772400416
 22
-189.7834307528832
 32
0.0
 13
-351.7287772400416
 23
-189.7834307528832
 33
0.0
  0
SOLID
  5
20A
330
204
100
AcDbEntity
  8
LAYER 02
 62
     0
100
AcDbTrace
 10
-48.76165682000921
 20
-96.12699146341528
 30
0.0
 11
-49.5599379034408
 21
-93.5826136567705
 31
0.0
 12
-41.52766394179072
 22
-92.45995930979814
 32
0.0
 13
-41.52766394179072
 23
-92.45995930979814
 33
0.0
  0
MTEXT
  5
20B
330
204
100
AcDbEntity
  8
LAYER 02
 62
     0
100
AcDbMText
 10
-196.6282205909161
 20
-141.1216950313407
 30
0.0
 40
8.0
 41
0.0
 71
     5
 72
     1
  1
\A1;325
  7
TAHOMA
 11
0.9541416774917856
 21
0.2993554062868438
 31
0.0
 73
     1
 44
1.0
  0
POINT
  5
20C
330
204
100
AcDbEntity
  8
Defpoints
 62
     0
100
AcDbPoint
 10
-342.2923284023246
 20
-219.8604192905725
 30
0.0
  0
POINT
  5
20D
330
204
100
AcDbEntity
  8
Defpoints
 62
     0
100
AcDbPoint
 10
-32.09121510407374
 20
-122.5369478474873
 30
0.0
  0
POINT
  5
20E
330
204
100
AcDbEntity
  8
Defpoints
 62
     0
100
AcDbPoint
 10
-41.52766394179072
 20
-92.45995930979814
 30
0.0
  0
ENDBLK
  5
210
330
204
100
AcDbEntity
  8
0
100
AcDbBlockEnd
  0
BLOCK
  5
21D
330
212
100
AcDbEntity
  8
0
100
AcDbBlockBegin
  2
*D5
 70
     1
 71
     0
 10
0.0
 20
0.0
 30
0.0
  3
*D5
  1

  0
LINE
  5
213
330
212
100
AcDbEntity
  8
LAYER 02
 62
     0
370
    -2
100
AcDbLine
 10
357.3544465835052
 20
-123.0152515509446
 30
0.0
 11
357.3544465835052
 21
-46.37098034779132
 31
0.0
  0
LINE
  5
214
330
212
100
AcDbEntity
  8
LAYER 02
 62
     0
370
    -2
100
AcDbLine
 10
446.1404387714246
 20
-89.33259227708692
 30
0.0
 11
446.1404387714246
 21
-46.37098034779132
 31
0.0
  0
LINE
  5
215
330
212
100
AcDbEntity
  8
LAYER 02
 62
     0
370
    -2
100
AcDbLine
 10
365.3544465835052
 20
-50.37098034779132
 30
0.0
 11
395.4474426774649
 21
-50.37098034779132
 31
0.0
  0
LINE
  5
216
330
212
100
AcDbEntity
  8
LAYER 02
 62
     0
370
    -2
100
AcDbLine
 10
438.1404387714246
 20
-50.37098034779132
 30
0.0
 11
408.0474426774649
 21
-50.37098034779132
 31
0.0
  0
SOLID
  5
217
330
212
100
AcDbEntity
  8
LAYER 02
 62
     0
100
AcDbTrace
 10
365.3544465835052
 20
-49.03764701445798
 30
0.0
 11
365.3544465835052
 21
-51.70431368112465
 31
0.0
 12
357.3544465835052
 22
-50.37098034779132
 32
0.0
 13
357.3544465835052
 23
-50.37098034779132
 33
0.0
  0
SOLID
  5
218
330
212
100
AcDbEntity
  8
LAYER 02
 62
     0
100
AcDbTrace
 10
438.1404387714246
 20
-51.70431368112465
 30
0.0
 11
438.1404387714246
 21
-49.03764701445798
 31
0.0
 12
446.1404387714246
 22
-50.37098034779132
 32
0.0
 13
446.1404387714246
 23
-50.37098034779132
 33
0.0
  0
MTEXT
  5
219
330
212
100
AcDbEntity
  8
LAYER 02
 62
     0
100
AcDbMText
 10
401.7474426774649
 20
-50.37098034779132
 30
0.0
 40
8.0
 41
0.0
 71
     5
 72
     1
  1
\A1;89
  7
TAHOMA
 73
     1
 44
1.0
  0
POINT
  5
21A
330
212
100
AcDbEntity
  8
Defpoints
 62
     0
100
AcDbPoint
 10
357.3544465835052
 20
-125.0152515509446
 30
0.0
  0
POINT
  5
21B
330
212
100
AcDbEntity
  8
Defpoints
 62
     0
100
AcDbPoint
 10
446.1404387714246
 20
-91.33259227708692
 30
0.0
  0
POINT
  5
21C
330
212
100
AcDbEntity
  8
Defpoints
 62
     0
100
AcDbPoint
 10
446.1404387714246
 20
-50.37098034779132
 30
0.0
  0
ENDBLK
  5
21E
330
212
100
AcDbEntity
  8
0
100
AcDbBlockEnd
  0
BLOCK
  5
22B
330
220
100
AcDbEntity
  8
0
100
AcDbBlockBegin
  2
*D6
 70
     1
 71
     0
 10
0.0
 20
0.0
 30
0.0
  3
*D6
  1

  0
LINE
  5
221
330
220
100
AcDbEntity
  8
LAYER 02
 62
     0
370
    -2
100
AcDbLine
 10
7.541171804044524
 20
-112.5093686178877
 30
0.0
 11
7.541171804044553
 21
-309.8275055179738
 31
0.0
  0
LINE
  5
222
330
220
100
AcDbEntity
  8
LAYER 02
 62
     0
370
    -2
100
AcDbLine
 10
357.4117459859426
 20
-222.0628677262035
 30
0.0
 11
357.4117459859426
 21
-309.8275055179738
 31
0.0
  0
LINE
  5
223
330
220
100
AcDbEntity
  8
LAYER 02
 62
     0
370
    -2
100
AcDbLine
 10
15.54117180404455
 20
-305.8275055179738
 30
0.0
 11
173.2284588949936
 21
-305.8275055179738
 31
0.0
  0
LINE
  5
224
330
220
100
AcDbEntity
  8
LAYER 02
 62
     0
370
    -2
100
AcDbLine
 10
349.4117459859426
 20
-305.8275055179738
 30
0.0
 11
191.7244588949936
 21
-305.8275055179738
 31
0.0
  0
SOLID
  5
225
330
220
100
AcDbEntity
  8
LAYER 02
 62
     0
100
AcDbTrace
 10
15.54117180404455
 20
-304.4941721846405
 30
0.0
 11
15.54117180404455
 21
-307.1608388513071
 31
0.0
 12
7.541171804044552
 22
-305.8275055179738
 32
0.0
 13
7.541171804044552
 23
-305.8275055179738
 33
0.0
  0
SOLID
  5
226
330
220
100
AcDbEntity
  8
LAYER 02
 62
     0
100
AcDbTrace
 10
349.4117459859426
 20
-307.1608388513071
 30
0.0
 11
349.4117459859426
 21
-304.4941721846405
 31
0.0
 12
357.4117459859426
 22
-305.8275055179738
 32
0.0
 13
357.4117459859426
 23
-305.8275055179738
 33
0.0
  0
MTEXT
  5
227
330
220
100
AcDbEntity
  8
LAYER 02
 62
     0
100
AcDbMText
 10
182.4764588949936
 20
-305.8275055179738
 30
0.0
 40
8.0
 41
0.0
 71
     5
 72
     1
  1
\A1;350
  7
TAHOMA
 73
     1
 44
1.0
  0
POINT
  5
228
330
220
100
AcDbEntity
  8
Defpoints
 62
     0
100
AcDbPoint
 10
7.541171804044524
 20
-110.5093686178877
 30
0.0
  0
POINT
  5
229
330
220
100
AcDbEntity
  8
Defpoints
 62
     0
100
AcDbPoint
 10
357.4117459859426
 20
-220.0628677262035
 30
0.0
  0
POINT
  5
22A
330
220
100
AcDbEntity
  8
Defpoints
 62
     0
100
AcDbPoint
 10
357.4117459859426
 20
-305.8275055179738
 30
0.0
  0
ENDBLK
  5
22C
330
220
100
AcDbEntity
  8
0
100
AcDbBlockEnd
  0
BLOCK
  5
239
330
22E
100
AcDbEntity
  8
0
100
AcDbBlockBegin
  2
*D7
 70
     1
 71
     0
 10
0.0
 20
0.0
 30
0.0
  3
*D7
  1

  0
LINE
  5
22F
330
22E
100
AcDbEntity
  8
LAYER 02
 62
     0
370
    -2
100
AcDbLine
 10
359.3544465835061
 20
-125.0152515509431
 30
0.0
 11
463.3122626987983
 21
-125.0152515509431
 31
0.0
  0
LINE
  5
230
330
22E
100
AcDbEntity
  8
LAYER 02
 62
     0
370
    -2
100
AcDbLine
 10
448.1404387714246
 20
-91.33259227708692
 30
0.0
 11
463.3122626987983
 21
-91.33259227708692
 31
0.0
  0
LINE
  5
231
330
22E
100
AcDbEntity
  8
LAYER 02
 62
     0
370
    -2
100
AcDbLine
 10
459.3122626987983
 20
-117.0152515509431
 30
0.0
 11
459.3122626987983
 21
-114.5059219140151
 31
0.0
  0
LINE
  5
232
330
22E
100
AcDbEntity
  8
LAYER 02
 62
     0
370
    -2
100
AcDbLine
 10
459.3122626987983
 20
-99.33259227708692
 30
0.0
 11
459.3122626987983
 21
-101.841921914015
 31
0.0
  0
SOLID
  5
233
330
22E
100
AcDbEntity
  8
LAYER 02
 62
     0
100
AcDbTrace
 10
457.978929365465
 20
-117.0152515509431
 30
0.0
 11
460.6455960321316
 21
-117.0152515509431
 31
0.0
 12
459.3122626987983
 22
-125.0152515509431
 32
0.0
 13
459.3122626987983
 23
-125.0152515509431
 33
0.0
  0
SOLID
  5
234
330
22E
100
AcDbEntity
  8
LAYER 02
 62
     0
100
AcDbTrace
 10
460.6455960321316
 20
-99.33259227708692
 30
0.0
 11
457.978929365465
 21
-99.33259227708692
 31
0.0
 12
459.3122626987983
 22
-91.33259227708692
 32
0.0
 13
459.3122626987983
 23
-91.33259227708692
 33
0.0
  0
MTEXT
  5
235
330
22E
100
AcDbEntity
  8
LAYER 02
 62
     0
100
AcDbMText
 10
459.3122626987983
 20
-108.173921914015
 30
0.0
 40
8.0
 41
0.0
 71
     5
 72
     1
  1
\A1;34
  7
TAHOMA
 11
0.0
 21
1.0
 31
0.0
 73
     1
 44
1.0
  0
POINT
  5
236
330
22E
100
AcDbEntity
  8
Defpoints
 62
     0
100
AcDbPoint
 10
357.3544465835061
 20
-125.0152515509431
 30
0.0
  0
POINT
  5
237
330
22E
100
AcDbEntity
  8
Defpoints
 62
     0
100
AcDbPoint
 10
446.1404387714246
 20
-91.33259227708692
 30
0.0
  0
POINT
  5
238
330
22E
100
AcDbEntity
  8
Defpoints
 62
     0
100
AcDbPoint
 10
459.3122626987983
 20
-91.33259227708692
 30
0.0
  0
ENDBLK
  5
23A
330
22E
100
AcDbEntity
  8
0
100
AcDbBlockEnd
  0
BLOCK
  5
247
330
23C
100
AcDbEntity
  8
0
100
AcDbBlockBegin
  2
*D8
 70
     1
 71
     0
 10
0.0
 20
0.0
 30
0.0
  3
*D8
  1

  0
LINE
  5
23D
330
23C
100
AcDbEntity
  8
LAYER 02
 62
     0
370
    -2
100
AcDbLine
 10
-342.3389498121483
 20
-174.2929923748167
 30
0.0
 11
-342.3389498121483
 21
-348.7484920557711
 31
0.0
  0
LINE
  5
23E
330
23C
100
AcDbEntity
  8
LAYER 02
 62
     0
370
    -2
100
AcDbLine
 10
357.3650436577208
 20
-174.1356333964408
 30
0.0
 11
357.3650436577208
 21
-348.7484920557711
 31
0.0
  0
LINE
  5
23F
330
23C
100
AcDbEntity
  8
LAYER 02
 62
     0
370
    -2
100
AcDbLine
 10
-334.3389498121483
 20
-344.7484920557711
 30
0.0
 11
-27.28496736580649
 21
-344.7484920557711
 31
0.0
  0
LINE
  5
240
330
23C
100
AcDbEntity
  8
LAYER 02
 62
     0
370
    -2
100
AcDbLine
 10
349.3650436577208
 20
-344.7484920557711
 30
0.0
 11
-8.796967365806438
 21
-344.7484920557711
 31
0.0
  0
SOLID
  5
241
330
23C
100
AcDbEntity
  8
LAYER 02
 62
     0
100
AcDbTrace
 10
-334.3389498121483
 20
-343.4151587224378
 30
0.0
 11
-334.3389498121483
 21
-346.0818253891044
 31
0.0
 12
-342.3389498121483
 22
-344.7484920557711
 32
0.0
 13
-342.3389498121483
 23
-344.7484920557711
 33
0.0
  0
SOLID
  5
242
330
23C
100
AcDbEntity
  8
LAYER 02
 62
     0
100
AcDbTrace
 10
349.3650436577208
 20
-346.0818253891044
 30
0.0
 11
349.3650436577208
 21
-343.4151587224378
 31
0.0
 12
357.3650436577208
 22
-344.7484920557711
 32
0.0
 13
357.3650436577208
 23
-344.7484920557711
 33
0.0
  0
MTEXT
  5
243
330
23C
100
AcDbEntity
  8
LAYER 02
 62
     0
100
AcDbMText
 10
-18.04096736580647
 20
-344.7484920557711
 30
0.0
 40
8.0
 41
0.0
 71
     5
 72
     1
  1
\A1;700
  7
TAHOMA
 73
     1
 44
1.0
  0
POINT
  5
244
330
23C
100
AcDbEntity
  8
Defpoints
 62
     0
100
AcDbPoint
 10
-342.3389498121483
 20
-172.2929923748167
 30
0.0
  0
POINT
  5
245
330
23C
100
AcDbEntity
  8
Defpoints
 62
     0
100
AcDbPoint
 10
357.3650436577208
 20
-172.1356333964408
 30
0.0
  0
POINT
  5
246
330
23C
100
AcDbEntity
  8
Defpoints
 62
     0
100
AcDbPoint
 10
357.3650436577208
 20
-344.7484920557711
 30
0.0
  0
ENDBLK
  5
248
330
23C
100
AcDbEntity
  8
0
100
AcDbBlockEnd
  0
BLOCK
  5
255
330
24A
100
AcDbEntity
  8
0
100
AcDbBlockBegin
  2
*D9
 70
     1
 71
     0
 10
0.0
 20
0.0
 30
0.0
  3
*D9
  1

  0
LINE
  5
24B
330
24A
100
AcDbEntity
  8
LAYER 02
 62
     0
370
    -2
100
AcDbLine
 10
217.2843920432833
 20
196.9324377140132
 30
0.0
 11
144.4905511727456
 21
196.9324377140133
 31
0.0
  0
LINE
  5
24C
330
24A
100
AcDbEntity
  8
LAYER 02
 62
     0
370
    -2
100
AcDbLine
 10
355.4117459859439
 20
-220.0628677262046
 30
0.0
 11
144.4905511727456
 21
-220.0628677262046
 31
0.0
  0
LINE
  5
24D
330
24A
100
AcDbEntity
  8
LAYER 02
 62
     0
370
    -2
100
AcDbLine
 10
148.4905511727456
 20
188.9324377140133
 30
0.0
 11
148.4905511727456
 21
-2.14521500609564
 31
0.0
  0
LINE
  5
24E
330
24A
100
AcDbEntity
  8
LAYER 02
 62
     0
370
    -2
100
AcDbLine
 10
148.4905511727456
 20
-212.0628677262046
 30
0.0
 11
148.4905511727456
 21
-20.98521500609561
 31
0.0
  0
SOLID
  5
24F
330
24A
100
AcDbEntity
  8
LAYER 02
 62
     0
100
AcDbTrace
 10
149.823884506079
 20
188.9324377140133
 30
0.0
 11
147.1572178394123
 21
188.9324377140133
 31
0.0
 12
148.4905511727456
 22
196.9324377140133
 32
0.0
 13
148.4905511727456
 23
196.9324377140133
 33
0.0
  0
SOLID
  5
250
330
24A
100
AcDbEntity
  8
LAYER 02
 62
     0
100
AcDbTrace
 10
147.1572178394123
 20
-212.0628677262046
 30
0.0
 11
149.8238845060789
 21
-212.0628677262046
 31
0.0
 12
148.4905511727456
 22
-220.0628677262046
 32
0.0
 13
148.4905511727456
 23
-220.0628677262046
 33
0.0
  0
MTEXT
  5
251
330
24A
100
AcDbEntity
  8
LAYER 02
 62
     0
100
AcDbMText
 10
148.4905511727456
 20
-11.56521500609566
 30
0.0
 40
8.0
 41
0.0
 71
     5
 72
     1
  1
\A1;417
  7
TAHOMA
 11
6.815834389406252E-17
 21
1.0
 31
0.0
 73
     1
 44
1.0
  0
POINT
  5
252
330
24A
100
AcDbEntity
  8
Defpoints
 62
     0
100
AcDbPoint
 10
219.2843920432833
 20
196.9324377140132
 30
0.0
  0
POINT
  5
253
330
24A
100
AcDbEntity
  8
Defpoints
 62
     0
100
AcDbPoint
 10
357.4117459859439
 20
-220.0628677262046
 30
0.0
  0
POINT
  5
254
330
24A
100
AcDbEntity
  8
Defpoints
 62
     0
100
AcDbPoint
 10
148.4905511727456
 20
-220.0628677262046
 30
0.0
  0
ENDBLK
  5
256
330
24A
100
AcDbEntity
  8
0
100
AcDbBlockEnd
  0
BLOCK
  5
263
330
258
100
AcDbEntity
  8
0
100
AcDbBlockBegin
  2
*D10
 70
     1
 71
     0
 10
0.0
 20
0.0
 30
0.0
  3
*D10
  1

  0
LINE
  5
259
330
258
100
AcDbEntity
  8
LAYER 02
 62
     0
370
    -2
100
AcDbLine
 10
357.4117459859439
 20
-222.062867726204
 30
0.0
 11
357.4117459859439
 21
-296.9650497401893
 31
0.0
  0
LINE
  5
25A
330
258
100
AcDbEntity
  8
LAYER 02
 62
     0
370
    -2
100
AcDbLine
 10
424.5415952954344
 20
-221.9299624262354
 30
0.0
 11
424.5415952954344
 21
-296.9650497401893
 31
0.0
  0
LINE
  5
25B
330
258
100
AcDbEntity
  8
LAYER 02
 62
     0
370
    -2
100
AcDbLine
 10
365.4117459859439
 20
-292.9650497401893
 30
0.0
 11
384.6806706406891
 21
-292.9650497401893
 31
0.0
  0
LINE
  5
25C
330
258
100
AcDbEntity
  8
LAYER 02
 62
     0
370
    -2
100
AcDbLine
 10
416.5415952954344
 20
-292.9650497401893
 30
0.0
 11
397.2726706406892
 21
-292.9650497401893
 31
0.0
  0
SOLID
  5
25D
330
258
100
AcDbEntity
  8
LAYER 02
 62
     0
100
AcDbTrace
 10
365.4117459859439
 20
-291.631716406856
 30
0.0
 11
365.4117459859439
 21
-294.2983830735226
 31
0.0
 12
357.4117459859439
 22
-292.9650497401893
 32
0.0
 13
357.4117459859439
 23
-292.9650497401893
 33
0.0
  0
SOLID
  5
25E
330
258
100
AcDbEntity
  8
LAYER 02
 62
     0
100
AcDbTrace
 10
416.5415952954344
 20
-294.2983830735226
 30
0.0
 11
416.5415952954344
 21
-291.631716406856
 31
0.0
 12
424.5415952954344
 22
-292.9650497401893
 32
0.0
 13
424.5415952954344
 23
-292.9650497401893
 33
0.0
  0
MTEXT
  5
25F
330
258
100
AcDbEntity
  8
LAYER 02
 62
     0
100
AcDbMText
 10
390.9766706406892
 20
-292.9650497401893
 30
0.0
 40
8.0
 41
0.0
 71
     5
 72
     1
  1
\A1;67
  7
TAHOMA
 73
     1
 44
1.0
  0
POINT
  5
260
330
258
100
AcDbEntity
  8
Defpoints
 62
     0
100
AcDbPoint
 10
357.4117459859439
 20
-220.062867726204
 30
0.0
  0
POINT
  5
261
330
258
100
AcDbEntity
  8
Defpoints
 62
     0
100
AcDbPoint
 10
424.5415952954344
 20
-219.9299624262354
 30
0.0
  0
POINT
  5
262
330
258
100
AcDbEntity
  8
Defpoints
 62
     0
100
AcDbPoint
 10
424.5415952954344
 20
-292.9650497401893
 30
0.0
  0
ENDBLK
  5
264
330
258
100
AcDbEntity
  8
0
100
AcDbBlockEnd
  0
BLOCK
  5
272
330
266
100
AcDbEntity
  8
0
100
AcDbBlockBegin
  2
*D11
 70
     1
 71
     0
 10
0.0
 20
0.0
 30
0.0
  3
*D11
  1

  0
LINE
  5
267
330
266
100
AcDbEntity
  8
LAYER 02
 62
     0
370
    -2
100
AcDbLine
 10
45.53639374679457
 20
-147.8924609668559
 30
0.0
 11
24.18090957858223
 21
-141.2055081664939
 31
0.0
  0
LINE
  5
268
330
266
100
AcDbEntity
  8
LAYER 02
 62
     0
370
    -2
100
AcDbLine
 10
52.8040775171039
 20
-124.6823516195891
 30
0.0
 11
31.44859334889156
 21
-117.995398819227
 31
0.0
  0
LINE
  5
269
330
266
100
AcDbEntity
  8
LAYER 02
 62
     0
370
    -2
100
AcDbLine
 10
37.65638463033545
 20
-111.5561964302639
 30
0.0
 11
45.65638463033545
 21
-111.5561964302639
 31
0.0
  0
LINE
  5
26A
330
266
100
AcDbEntity
  8
LAYER 02
 62
     0
370
    -2
100
AcDbLine
 10
30.38870086002611
 20
-134.7663057775307
 30
0.0
 11
32.87528049119579
 21
-126.8251532777601
 31
0.0
  0
LINE
  5
26B
330
266
100
AcDbEntity
  8
LAYER 02
 62
     0
370
    -2
100
AcDbLine
 10
35.26583256076562
 20
-119.190674854012
 30
0.0
 11
37.65638463033545
 21
-111.5561964302639
 31
0.0
  0
SOLID
  5
26C
330
266
100
AcDbEntity
  8
LAYER 02
 62
     0
100
AcDbTrace
 10
29.11628778940143
 20
-134.3678804326024
 30
0.0
 11
31.6611139306508
 21
-135.164731122459
 31
0.0
 12
27.99814879045628
 22
-142.4007842012788
 32
0.0
 13
27.99814879045628
 23
-142.4007842012788
 33
0.0
  0
SOLID
  5
26D
330
266
100
AcDbEntity
  8
LAYER 02
 62
     0
100
AcDbTrace
 10
34.14769356182047
 20
-127.2235786226884
 30
0.0
 11
31.6028674205711
 21
-126.4267279328318
 31
0.0
 12
35.26583256076562
 22
-119.190674854012
 32
0.0
 13
35.26583256076562
 23
-119.190674854012
 33
0.0
  0
MTEXT
  5
26E
330
266
100
AcDbEntity
  8
LAYER 02
 62
     0
100
AcDbMText
 10
51.95638463033544
 20
-111.5561964302639
 30
0.0
 40
8.0
 41
0.0
 71
     5
 72
     1
  1
\A1;24
  7
TAHOMA
 73
     1
 44
1.0
  0
POINT
  5
26F
330
266
100
AcDbEntity
  8
Defpoints
 62
     0
100
AcDbPoint
 10
47.44501335273159
 20
-148.4900989842484
 30
0.0
  0
POINT
  5
270
330
266
100
AcDbEntity
  8
Defpoints
 62
     0
100
AcDbPoint
 10
54.71269712304093
 20
-125.2799896369815
 30
0.0
  0
POINT
  5
271
330
266
100
AcDbEntity
  8
Defpoints
 62
     0
100
AcDbPoint
 10
35.26583256076562
 20
-119.190674854012
 30
0.0
  0
ENDBLK
  5
273
330
266
100
AcDbEntity
  8
0
100
AcDbBlockEnd
  0
BLOCK
  5
280
330
275
100
AcDbEntity
  8
0
100
AcDbBlockBegin
  2
*D12
 70
     1
 71
     0
 10
0.0
 20
0.0
 30
0.0
  3
*D12
  1

  0
LINE
  5
276
330
275
100
AcDbEntity
  8
LAYER 02
 62
     0
370
    -2
100
AcDbLine
 10
46.67610965041601
 20
-137.4232372527047
 30
0.0
 11
26.20621605864736
 21
-199.1199274516311
 31
0.0
  0
LINE
  5
277
330
275
100
AcDbEntity
  8
LAYER 02
 62
     0
370
    -2
100
AcDbLine
 10
356.922259648107
 20
-240.3575382213999
 30
0.0
 11
336.4523660563383
 21
-302.0542284203263
 31
0.0
  0
LINE
  5
278
330
275
100
AcDbEntity
  8
LAYER 02
 62
     0
370
    -2
100
AcDbLine
 10
35.05881876875669
 20
-197.8426548664071
 30
0.0
 11
173.792422257703
 21
-243.8720624710111
 31
0.0
  0
LINE
  5
279
330
275
100
AcDbEntity
  8
LAYER 02
 62
     0
370
    -2
100
AcDbLine
 10
330.1189863620936
 20
-295.7385098033732
 30
0.0
 11
191.3853828731472
 21
-249.7091021987692
 31
0.0
  0
SOLID
  5
27A
330
275
100
AcDbEntity
  8
LAYER 02
 62
     0
100
AcDbTrace
 10
35.47868927140079
 20
-196.577156332711
 30
0.0
 11
34.6389482661126
 21
-199.1081534001033
 31
0.0
 12
27.46582756657963
 22
-195.3234318505426
 32
0.0
 13
27.46582756657963
 23
-195.3234318505426
 33
0.0
  0
SOLID
  5
27B
330
275
100
AcDbEntity
  8
LAYER 02
 62
     0
100
AcDbTrace
 10
329.6991158594495
 20
-297.0040083370694
 30
0.0
 11
330.5388568647376
 21
-294.473011269677
 31
0.0
 12
337.7119775642706
 22
-298.2577328192378
 32
0.0
 13
337.7119775642706
 23
-298.2577328192378
 33
0.0
  0
MTEXT
  5
27C
330
275
100
AcDbEntity
  8
LAYER 02
 62
     0
100
AcDbMText
 10
182.5889025654251
 20
-246.7905823348902
 30
0.0
 40
8.0
 41
0.0
 71
     5
 72
     1
  1
\A1;327
  7
TAHOMA
 11
0.9491239002721331
 21
-0.3149028769830688
 31
0.0
 73
     1
 44
1.0
  0
POINT
  5
27D
330
275
100
AcDbEntity
  8
Defpoints
 62
     0
100
AcDbPoint
 10
47.30591540438215
 20
-135.5249894521605
 30
0.0
  0
POINT
  5
27E
330
275
100
AcDbEntity
  8
Defpoints
 62
     0
100
AcDbPoint
 10
357.5520654020731
 20
-238.4592904208557
 30
0.0
  0
POINT
  5
27F
330
275
100
AcDbEntity
  8
Defpoints
 62
     0
100
AcDbPoint
 10
337.7119775642706
 20
-298.2577328192378
 30
0.0
  0
ENDBLK
  5
281
330
275
100
AcDbEntity
  8
0
100
AcDbBlockEnd
  0
BLOCK
  5
28E
330
283
100
AcDbEntity
  8
0
100
AcDbBlockBegin
  2
*D13
 70
     1
 71
     0
 10
0.0
 20
0.0
 30
0.0
  3
*D13
  1

  0
LINE
  5
284
330
283
100
AcDbEntity
  8
LAYER 02
 62
     0
370
    -2
100
AcDbLine
 10
-431.5165767924851
 20
-93.33259227708692
 30
0.0
 11
-431.5165767924851
 21
-397.2006689311381
 31
0.0
  0
LINE
  5
285
330
283
100
AcDbEntity
  8
LAYER 02
 62
     0
370
    -2
100
AcDbLine
 10
446.1404387714246
 20
-93.33259227708692
 30
0.0
 11
446.1404387714246
 21
-397.2006689311381
 31
0.0
  0
LINE
  5
286
330
283
100
AcDbEntity
  8
LAYER 02
 62
     0
370
    -2
100
AcDbLine
 10
-423.5165767924851
 20
-393.2006689311381
 30
0.0
 11
-27.57408329912289
 21
-393.2006689311381
 31
0.0
  0
LINE
  5
287
330
283
100
AcDbEntity
  8
LAYER 02
 62
     0
370
    -2
100
AcDbLine
 10
438.1404387714246
 20
-393.2006689311381
 30
0.0
 11
-8.910083299122903
 21
-393.2006689311381
 31
0.0
  0
SOLID
  5
288
330
283
100
AcDbEntity
  8
LAYER 02
 62
     0
100
AcDbTrace
 10
-423.5165767924851
 20
-391.8673355978048
 30
0.0
 11
-423.5165767924851
 21
-394.5340022644714
 31
0.0
 12
-431.5165767924851
 22
-393.2006689311381
 32
0.0
 13
-431.5165767924851
 23
-393.2006689311381
 33
0.0
  0
SOLID
  5
289
330
283
100
AcDbEntity
  8
LAYER 02
 62
     0
100
AcDbTrace
 10
438.1404387714246
 20
-394.5340022644714
 30
0.0
 11
438.1404387714246
 21
-391.8673355978048
 31
0.0
 12
446.1404387714246
 22
-393.2006689311381
 32
0.0
 13
446.1404387714246
 23
-393.2006689311381
 33
0.0
  0
MTEXT
  5
28A
330
283
100
AcDbEntity
  8
LAYER 02
 62
     0
100
AcDbMText
 10
-18.24208329912295
 20
-393.2006689311381
 30
0.0
 40
8.0
 41
0.0
 71
     5
 72
     1
  1
\A1;878
  7
TAHOMA
 73
     1
 44
1.0
  0
POINT
  5
28B
330
283
100
AcDbEntity
  8
Defpoints
 62
     0
100
AcDbPoint
 10
-431.5165767924851
 20
-91.33259227708692
 30
0.0
  0
POINT
  5
28C
330
283
100
AcDbEntity
  8
Defpoints
 62
     0
100
AcDbPoint
 10
446.1404387714246
 20
-91.33259227708692
 30
0.0
  0
POINT
  5
28D
330
283
100
AcDbEntity
  8
Defpoints
 62
     0
100
AcDbPoint
 10
446.1404387714246
 20
-393.2006689311381
 30
0.0
  0
ENDBLK
  5
28F
330
283
100
AcDbEntity
  8
0
100
AcDbBlockEnd
  0
BLOCK
  5
29C
330
291
100
AcDbEntity
  8
0
100
AcDbBlockBegin
  2
*D14
 70
     1
 71
     0
 10
0.0
 20
0.0
 30
0.0
  3
*D14
  1

  0
LINE
  5
292
330
291
100
AcDbEntity
  8
LAYER 02
 62
     0
370
    -2
100
AcDbLine
 10
-409.766361716012
 20
-222.1175929800026
 30
0.0
 11
-409.766361716012
 21
-372.5272718179199
 31
0.0
  0
LINE
  5
293
330
291
100
AcDbEntity
  8
LAYER 02
 62
     0
370
    -2
100
AcDbLine
 10
424.5415952954344
 20
-221.9299624262358
 30
0.0
 11
424.5415952954344
 21
-372.5272718179199
 31
0.0
  0
LINE
  5
294
330
291
100
AcDbEntity
  8
LAYER 02
 62
     0
370
    -2
100
AcDbLine
 10
-401.766361716012
 20
-368.5272718179199
 30
0.0
 11
-27.56239749888204
 21
-368.5272718179199
 31
0.0
  0
LINE
  5
295
330
291
100
AcDbEntity
  8
LAYER 02
 62
     0
370
    -2
100
AcDbLine
 10
416.5415952954344
 20
-368.5272718179199
 30
0.0
 11
-8.770397498881948
 21
-368.5272718179199
 31
0.0
  0
SOLID
  5
296
330
291
100
AcDbEntity
  8
LAYER 02
 62
     0
100
AcDbTrace
 10
-401.766361716012
 20
-367.1939384845866
 30
0.0
 11
-401.766361716012
 21
-369.8606051512532
 31
0.0
 12
-409.766361716012
 22
-368.5272718179199
 32
0.0
 13
-409.766361716012
 23
-368.5272718179199
 33
0.0
  0
SOLID
  5
297
330
291
100
AcDbEntity
  8
LAYER 02
 62
     0
100
AcDbTrace
 10
416.5415952954344
 20
-369.8606051512532
 30
0.0
 11
416.5415952954344
 21
-367.1939384845866
 31
0.0
 12
424.5415952954344
 22
-368.5272718179199
 32
0.0
 13
424.5415952954344
 23
-368.5272718179199
 33
0.0
  0
MTEXT
  5
298
330
291
100
AcDbEntity
  8
LAYER 02
 62
     0
100
AcDbMText
 10
-18.16639749888196
 20
-368.5272718179199
 30
0.0
 40
8.0
 41
0.0
 71
     5
 72
     1
  1
\A1;834
  7
TAHOMA
 73
     1
 44
1.0
  0
POINT
  5
299
330
291
100
AcDbEntity
  8
Defpoints
 62
     0
100
AcDbPoint
 10
-409.766361716012
 20
-220.1175929800026
 30
0.0
  0
POINT
  5
29A
330
291
100
AcDbEntity
  8
Defpoints
 62
     0
100
AcDbPoint
 10
424.5415952954344
 20
-219.9299624262358
 30
0.0
  0
POINT
  5
29B
330
291
100
AcDbEntity
  8
Defpoints
 62
     0
100
AcDbPoint
 10
424.5415952954344
 20
-368.5272718179199
 30
0.0
  0
ENDBLK
  5
29D
330
291
100
AcDbEntity
  8
0
100
AcDbBlockEnd
  0
BLOCK
  5
2AA
330
29F
100
AcDbEntity
  8
0
100
AcDbBlockBegin
  2
*D15
 70
     1
 71
     0
 10
0.0
 20
0.0
 30
0.0
  3
*D15
  1

  0
LINE
  5
2A0
330
29F
100
AcDbEntity
  8
LAYER 02
 62
     0
370
    -2
100
AcDbLine
 10
-344.3282718195333
 20
-219.7731816343214
 30
0.0
 11
-485.3495922786356
 21
-219.7731816343214
 31
0.0
  0
LINE
  5
2A1
330
29F
100
AcDbEntity
  8
LAYER 02
 62
     0
370
    -2
100
AcDbLine
 10
-433.5165767924851
 20
-91.33259227708672
 30
0.0
 11
-485.3495922786356
 21
-91.33259227708672
 31
0.0
  0
LINE
  5
2A2
330
29F
100
AcDbEntity
  8
LAYER 02
 62
     0
370
    -2
100
AcDbLine
 10
-481.3495922786356
 20
-211.7731816343214
 30
0.0
 11
-481.3495922786356
 21
-164.4768869557041
 31
0.0
  0
LINE
  5
2A3
330
29F
100
AcDbEntity
  8
LAYER 02
 62
     0
370
    -2
100
AcDbLine
 10
-481.3495922786356
 20
-99.33259227708672
 30
0.0
 11
-481.3495922786356
 21
-146.628886955704
 31
0.0
  0
SOLID
  5
2A4
330
29F
100
AcDbEntity
  8
LAYER 02
 62
     0
100
AcDbTrace
 10
-482.6829256119689
 20
-211.7731816343214
 30
0.0
 11
-480.0162589453022
 21
-211.7731816343214
 31
0.0
 12
-481.3495922786356
 22
-219.7731816343214
 32
0.0
 13
-481.3495922786356
 23
-219.7731816343214
 33
0.0
  0
SOLID
  5
2A5
330
29F
100
AcDbEntity
  8
LAYER 02
 62
     0
100
AcDbTrace
 10
-480.0162589453022
 20
-99.33259227708672
 30
0.0
 11
-482.6829256119689
 21
-99.33259227708672
 31
0.0
 12
-481.3495922786356
 22
-91.33259227708672
 32
0.0
 13
-481.3495922786356
 23
-91.33259227708672
 33
0.0
  0
MTEXT
  5
2A6
330
29F
100
AcDbEntity
  8
LAYER 02
 62
     0
100
AcDbMText
 10
-481.3495922786356
 20
-155.552886955704
 30
0.0
 40
8.0
 41
0.0
 71
     5
 72
     1
  1
\A1;128
  7
TAHOMA
 11
0.0
 21
1.0
 31
0.0
 73
     1
 44
1.0
  0
POINT
  5
2A7
330
29F
100
AcDbEntity
  8
Defpoints
 62
     0
100
AcDbPoint
 10
-342.3282718195333
 20
-219.7731816343214
 30
0.0
  0
POINT
  5
2A8
330
29F
100
AcDbEntity
  8
Defpoints
 62
     0
100
AcDbPoint
 10
-431.5165767924851
 20
-91.33259227708672
 30
0.0
  0
POINT
  5
2A9
330
29F
100
AcDbEntity
  8
Defpoints
 62
     0
100
AcDbPoint
 10
-481.3495922786356
 20
-91.33259227708672
 30
0.0
  0
ENDBLK
  5
2AB
330
29F
100
AcDbEntity
  8
0
100
AcDbBlockEnd
  0
BLOCK
  5
2B8
330
2AD
100
AcDbEntity
  8
0
100
AcDbBlockBegin
  2
*D16
 70
     1
 71
     0
 10
0.0
 20
0.0
 30
0.0
  3
*D16
  1

  0
LINE
  5
2AE
330
2AD
100
AcDbEntity
  8
LAYER 02
 62
     0
370
    -2
100
AcDbLine
 10
-332.4257360411139
 20
-144.6314474972336
 30
0.0
 11
-387.7755322117383
 21
-46.59022277431753
 31
0.0
  0
LINE
  5
2AF
330
2AD
100
AcDbEntity
  8
LAYER 02
 62
     0
370
    -2
100
AcDbLine
 10
-11.94742624504286
 20
36.29661796146533
 30
0.0
 11
-67.2972224156673
 21
134.3378426843814
 31
0.0
  0
LINE
  5
2B0
330
2AD
100
AcDbEntity
  8
LAYER 02
 62
     0
370
    -2
100
AcDbLine
 10
-378.8425739802946
 20
-46.14049259378485
 30
0.0
 11
-233.6440375557007
 21
35.83226343907377
 31
0.0
  0
LINE
  5
2B1
330
2AD
100
AcDbEntity
  8
LAYER 02
 62
     0
370
    -2
100
AcDbLine
 10
-72.29721321010739
 20
126.9216379909068
 30
0.0
 11
-217.4957496347014
 21
44.94888195804818
 31
0.0
  0
SOLID
  5
2B2
330
2AD
100
AcDbEntity
  8
LAYER 02
 62
     0
100
AcDbTrace
 10
-379.4980685531286
 20
-44.97941350829453
 30
0.0
 11
-378.1870794074607
 21
-47.30157167927516
 31
0.0
 12
-385.8090484932365
 22
-50.07346003078848
 32
0.0
 13
-385.8090484932365
 23
-50.07346003078848
 33
0.0
  0
SOLID
  5
2B3
330
2AD
100
AcDbEntity
  8
LAYER 02
 62
     0
100
AcDbTrace
 10
-71.64171863727344
 20
125.7605589054165
 30
0.0
 11
-72.95270778294133
 21
128.0827170763971
 31
0.0
 12
-65.33073869716549
 22
130.8546054279104
 32
0.0
 13
-65.33073869716549
 23
130.8546054279104
 33
0.0
  0
MTEXT
  5
2B4
330
2AD
100
AcDbEntity
  8
LAYER 02
 62
     0
100
AcDbMText
 10
-225.569893595201
 20
40.39057269856097
 30
0.0
 40
8.0
 41
0.0
 71
     5
 72
     1
  1
\A1;368
  7
TAHOMA
 11
0.8708093141177374
 21
0.4916209296254541
 31
0.0
 73
     1
 44
1.0
  0
POINT
  5
2B5
330
2AD
100
AcDbEntity
  8
Defpoints
 62
     0
100
AcDbPoint
 10
-331.442494181863
 20
-146.3730661254691
 30
0.0
  0
POINT
  5
2B6
330
2AD
100
AcDbEntity
  8
Defpoints
 62
     0
100
AcDbPoint
 10
-10.96418438579195
 20
34.55499933322986
 30
0.0
  0
POINT
  5
2B7
330
2AD
100
AcDbEntity
  8
Defpoints
 62
     0
100
AcDbPoint
 10
-65.33073869716549
 20
130.8546054279104
 30
0.0
  0
ENDBLK
  5
2B9
330
2AD
100
AcDbEntity
  8
0
100
AcDbBlockEnd
  0
BLOCK
  5
2C6
330
2BB
100
AcDbEntity
  8
0
100
AcDbBlockBegin
  2
*D17
 70
     1
 71
     0
 10
0.0
 20
0.0
 30
0.0
  3
*D17
  1

  0
LINE
  5
2BC
330
2BB
100
AcDbEntity
  8
LAYER 02
 62
     0
370
    -2
100
AcDbLine
 10
9.311930989470028
 20
116.516642325878
 30
0.0
 11
60.13037956475453
 21
116.516642325878
 31
0.0
  0
LINE
  5
2BD
330
2BB
100
AcDbEntity
  8
LAYER 02
 62
     0
370
    -2
100
AcDbLine
 10
9.362917419152808
 20
-110.1968812969985
 30
0.0
 11
60.13037956475452
 21
-110.1968812969985
 31
0.0
  0
LINE
  5
2BE
330
2BB
100
AcDbEntity
  8
LAYER 02
 62
     0
370
    -2
100
AcDbLine
 10
56.13037956475453
 20
108.516642325878
 30
0.0
 11
56.13037956475453
 21
12.39588051443972
 31
0.0
  0
LINE
  5
2BF
330
2BB
100
AcDbEntity
  8
LAYER 02
 62
     0
370
    -2
100
AcDbLine
 10
56.13037956475452
 20
-102.1968812969985
 30
0.0
 11
56.13037956475453
 21
-6.076119485560241
 31
0.0
  0
SOLID
  5
2C0
330
2BB
100
AcDbEntity
  8
LAYER 02
 62
     0
100
AcDbTrace
 10
57.46371289808787
 20
108.516642325878
 30
0.0
 11
54.7970462314212
 21
108.516642325878
 31
0.0
 12
56.13037956475453
 22
116.516642325878
 32
0.0
 13
56.13037956475453
 23
116.516642325878
 33
0.0
  0
SOLID
  5
2C1
330
2BB
100
AcDbEntity
  8
LAYER 02
 62
     0
100
AcDbTrace
 10
54.79704623142118
 20
-102.1968812969985
 30
0.0
 11
57.46371289808786
 21
-102.1968812969985
 31
0.0
 12
56.13037956475452
 22
-110.1968812969985
 32
0.0
 13
56.13037956475452
 23
-110.1968812969985
 33
0.0
  0
MTEXT
  5
2C2
330
2BB
100
AcDbEntity
  8
LAYER 02
 62
     0
100
AcDbMText
 10
56.13037956475453
 20
3.159880514439749
 30
0.0
 40
8.0
 41
0.0
 71
     5
 72
     1
  1
\A1;227
  7
TAHOMA
 11
6.268198953513183E-17
 21
1.0
 31
0.0
 73
     1
 44
1.0
  0
POINT
  5
2C3
330
2BB
100
AcDbEntity
  8
Defpoints
 62
     0
100
AcDbPoint
 10
7.311930989470028
 20
116.516642325878
 30
0.0
  0
POINT
  5
2C4
330
2BB
100
AcDbEntity
  8
Defpoints
 62
     0
100
AcDbPoint
 10
7.362917419152808
 20
-110.1968812969985
 30
0.0
  0
POINT
  5
2C5
330
2BB
100
AcDbEntity
  8
Defpoints
 62
     0
100
AcDbPoint
 10
56.13037956475452
 20
-110.1968812969985
 30
0.0
  0
ENDBLK
  5
2C7
330
2BB
100
AcDbEntity
  8
0
100
AcDbBlockEnd
  0
BLOCK
  5
2D4
330
2C9
100
AcDbEntity
  8
0
100
AcDbBlockBegin
  2
*D18
 70
     1
 71
     0
 10
0.0
 20
0.0
 30
0.0
  3
*D18
  1

  0
LINE
  5
2CA
330
2C9
100
AcDbEntity
  8
LAYER 02
 62
     0
370
    -2
100
AcDbLine
 10
6.602526521051431
 20
118.3866009618343
 30
0.0
 11
-4.427481396458887
 21
147.4612113966882
 31
0.0
  0
LINE
  5
2CB
330
2C9
100
AcDbEntity
  8
LAYER 02
 62
     0
370
    -2
100
AcDbLine
 10
218.5749875748791
 20
198.8023963499323
 30
0.0
 11
207.5449796573688
 21
227.8770067847862
 31
0.0
  0
LINE
  5
2CC
330
2C9
100
AcDbEntity
  8
LAYER 02
 62
     0
370
    -2
100
AcDbLine
 10
4.4711620842037
 20
146.5589119984499
 30
0.0
 11
94.34208908644571
 21
180.6531619836674
 31
0.0
  0
LINE
  5
2CD
330
2C9
100
AcDbEntity
  8
LAYER 02
 62
     0
370
    -2
100
AcDbLine
 10
201.4839540503806
 20
221.2994716391991
 30
0.0
 11
111.6130270481386
 21
187.2052216539816
 31
0.0
  0
SOLID
  5
2CE
330
2C9
100
AcDbEntity
  8
LAYER 02
 62
     0
100
AcDbTrace
 10
3.998225771924635
 20
147.8055510890874
 30
0.0
 11
4.944098396482765
 21
145.3122729078123
 31
0.0
 12
-3.008672459621692
 22
143.7212941247755
 32
0.0
 13
-3.008672459621692
 23
143.7212941247755
 33
0.0
  0
SOLID
  5
2CF
330
2C9
100
AcDbEntity
  8
LAYER 02
 62
     0
100
AcDbTrace
 10
201.9568903626596
 20
220.0528325485615
 30
0.0
 11
201.0110177381015
 21
222.5461107298366
 31
0.0
 12
208.963788594206
 22
224.1370895128735
 32
0.0
 13
208.963788594206
 23
224.1370895128735
 33
0.0
  0
MTEXT
  5
2D0
330
2C9
100
AcDbEntity
  8
LAYER 02
 62
     0
100
AcDbMText
 10
102.9775580672921
 20
183.9291918188245
 30
0.0
 40
8.0
 41
0.0
 71
     5
 72
     1
  1
\A1;227
  7
TAHOMA
 11
0.9349793179781741
 21
0.3547022342092989
 31
0.0
 73
     1
 44
1.0
  0
POINT
  5
2D1
330
2C9
100
AcDbEntity
  8
Defpoints
 62
     0
100
AcDbPoint
 10
7.311930989470028
 20
116.516642325878
 30
0.0
  0
POINT
  5
2D2
330
2C9
100
AcDbEntity
  8
Defpoints
 62
     0
100
AcDbPoint
 10
219.2843920432977
 20
196.932437713976
 30
0.0
  0
POINT
  5
2D3
330
2C9
100
AcDbEntity
  8
Defpoints
 62
     0
100
AcDbPoint
 10
208.963788594206
 20
224.1370895128735
 30
0.0
  0
ENDBLK
  5
2D5
330
2C9
100
AcDbEntity
  8
0
100
AcDbBlockEnd
  0
BLOCK
  5
2E2
330
2D7
100
AcDbEntity
  8
0
100
AcDbBlockBegin
  2
*D19
 70
     1
 71
     0
 10
0.0
 20
0.0
 30
0.0
  3
*D19
  1

  0
LINE
  5
2D8
330
2D7
100
AcDbEntity
  8
LAYER 02
 62
     0
370
    -2
100
AcDbLine
 10
5.383854757969829
 20
44.95257159017575
 30
0.0
 11
-10.81712945806069
 21
44.95257159017575
 31
0.0
  0
LINE
  5
2D9
330
2D7
100
AcDbEntity
  8
LAYER 02
 62
     0
370
    -2
100
AcDbLine
 10
5.311930989469573
 20
116.516642325878
 30
0.0
 11
-10.81712945806069
 21
116.516642325878
 31
0.0
  0
LINE
  5
2DA
330
2D7
100
AcDbEntity
  8
LAYER 02
 62
     0
370
    -2
100
AcDbLine
 10
-6.817129458060695
 20
52.95257159017575
 30
0.0
 11
-6.817129458060694
 21
74.51460695802686
 31
0.0
  0
LINE
  5
2DB
330
2D7
100
AcDbEntity
  8
LAYER 02
 62
     0
370
    -2
100
AcDbLine
 10
-6.817129458060692
 20
108.516642325878
 30
0.0
 11
-6.817129458060693
 21
86.95460695802686
 31
0.0
  0
SOLID
  5
2DC
330
2D7
100
AcDbEntity
  8
LAYER 02
 62
     0
100
AcDbTrace
 10
-8.150462791394029
 20
52.95257159017575
 30
0.0
 11
-5.483796124727362
 21
52.95257159017575
 31
0.0
 12
-6.817129458060696
 22
44.95257159017575
 32
0.0
 13
-6.817129458060696
 23
44.95257159017575
 33
0.0
  0
SOLID
  5
2DD
330
2D7
100
AcDbEntity
  8
LAYER 02
 62
     0
100
AcDbTrace
 10
-5.483796124727359
 20
108.516642325878
 30
0.0
 11
-8.150462791394025
 21
108.516642325878
 31
0.0
 12
-6.817129458060691
 22
116.516642325878
 32
0.0
 13
-6.817129458060691
 23
116.516642325878
 33
0.0
  0
MTEXT
  5
2DE
330
2D7
100
AcDbEntity
  8
LAYER 02
 62
     0
100
AcDbMText
 10
-6.817129458060693
 20
80.73460695802686
 30
0.0
 40
8.0
 41
0.0
 71
     5
 72
     1
  1
\A1;72
  7
TAHOMA
 11
6.205477207831797E-17
 21
1.0
 31
0.0
 73
     1
 44
1.0
  0
POINT
  5
2DF
330
2D7
100
AcDbEntity
  8
Defpoints
 62
     0
100
AcDbPoint
 10
7.383854757969829
 20
44.95257159017575
 30
0.0
  0
POINT
  5
2E0
330
2D7
100
AcDbEntity
  8
Defpoints
 62
     0
100
AcDbPoint
 10
7.311930989469573
 20
116.516642325878
 30
0.0
  0
POINT
  5
2E1
330
2D7
100
AcDbEntity
  8
Defpoints
 62
     0
100
AcDbPoint
 10
-6.817129458060691
 20
116.516642325878
 30
0.0
  0
ENDBLK
  5
2E3
330
2D7
100
AcDbEntity
  8
0
100
AcDbBlockEnd
  0
BLOCK
  5
2F2
330
2E7
100
AcDbEntity
  8
0
100
AcDbBlockBegin
  2
*D20
 70
     1
 71
     0
 10
0.0
 20
0.0
 30
0.0
  3
*D20
  1

  0
LINE
  5
2E8
330
2E7
100
AcDbEntity
  8
LAYER 02
 62
     0
370
    -2
100
AcDbLine
 10
-30.75066418329973
 20
-18.59627235222223
 30
0.0
 11
-46.72067565756246
 21
-18.59627235222223
 31
0.0
  0
LINE
  5
2E9
330
2E7
100
AcDbEntity
  8
LAYER 02
 62
     0
370
    -2
100
AcDbLine
 10
5.311930989470028
 20
116.516642325878
 30
0.0
 11
-46.72067565756245
 21
116.516642325878
 31
0.0
  0
LINE
  5
2EA
330
2E7
100
AcDbEntity
  8
LAYER 02
 62
     0
370
    -2
100
AcDbLine
 10
-42.72067565756246
 20
-10.59627235222223
 30
0.0
 11
-42.72067565756246
 21
40.12418498682787
 31
0.0
  0
LINE
  5
2EB
330
2E7
100
AcDbEntity
  8
LAYER 02
 62
     0
370
    -2
100
AcDbLine
 10
-42.72067565756245
 20
108.516642325878
 30
0.0
 11
-42.72067565756245
 21
57.79618498682787
 31
0.0
  0
SOLID
  5
2EC
330
2E7
100
AcDbEntity
  8
LAYER 02
 62
     0
100
AcDbTrace
 10
-44.0540089908958
 20
-10.59627235222223
 30
0.0
 11
-41.38734232422912
 21
-10.59627235222223
 31
0.0
 12
-42.72067565756246
 22
-18.59627235222223
 32
0.0
 13
-42.72067565756246
 23
-18.59627235222223
 33
0.0
  0
SOLID
  5
2ED
330
2E7
100
AcDbEntity
  8
LAYER 02
 62
     0
100
AcDbTrace
 10
-41.38734232422912
 20
108.516642325878
 30
0.0
 11
-44.05400899089579
 21
108.516642325878
 31
0.0
 12
-42.72067565756245
 22
116.516642325878
 32
0.0
 13
-42.72067565756245
 23
116.516642325878
 33
0.0
  0
MTEXT
  5
2EE
330
2E7
100
AcDbEntity
  8
LAYER 02
 62
     0
100
AcDbMText
 10
-42.72067565756245
 20
48.96018498682787
 30
0.0
 40
8.0
 41
0.0
 71
     5
 72
     1
  1
\A1;135
  7
TAHOMA
 11
5.258880969690669E-17
 21
1.0
 31
0.0
 73
     1
 44
1.0
  0
POINT
  5
2EF
330
2E7
100
AcDbEntity
  8
Defpoints
 62
     0
100
AcDbPoint
 10
-28.75066418329973
 20
-18.59627235222223
 30
0.0
  0
POINT
  5
2F0
330
2E7
100
AcDbEntity
  8
Defpoints
 62
     0
100
AcDbPoint
 10
7.311930989470028
 20
116.516642325878
 30
0.0
  0
POINT
  5
2F1
330
2E7
100
AcDbEntity
  8
Defpoints
 62
     0
100
AcDbPoint
 10
-42.72067565756245
 20
116.516642325878
 30
0.0
  0
ENDBLK
  5
2F3
330
2E7
100
AcDbEntity
  8
0
100
AcDbBlockEnd
  0
BLOCK
  5
300
330
2F5
100
AcDbEntity
  8
0
100
AcDbBlockBegin
  2
*D21
 70
     1
 71
     0
 10
0.0
 20
0.0
 30
0.0
  3
*D21
  1

  0
LINE
  5
2F6
330
2F5
100
AcDbEntity
  8
LAYER 02
 62
     0
370
    -2
100
AcDbLine
 10
221.2120593602074
 20
198.1128178760213
 30
0.0
 11
288.8850882254202
 21
251.3179955010755
 31
0.0
  0
LINE
  5
2F7
330
2F5
100
AcDbEntity
  8
LAYER 02
 62
     0
370
    -2
100
AcDbLine
 10
447.8070123434218
 20
-90.09910957977058
 30
0.0
 11
515.4800412086347
 21
-36.89393195471644
 31
0.0
  0
LINE
  5
2F8
330
2F5
100
AcDbEntity
  8
LAYER 02
 62
     0
370
    -2
100
AcDbLine
 10
290.6850692902449
 20
242.5567131653513
 30
0.0
 11
393.3098473104486
 21
112.0256281234142
 31
0.0
  0
LINE
  5
2F9
330
2F5
100
AcDbEntity
  8
LAYER 02
 62
     0
370
    -2
100
AcDbLine
 10
507.3910267011605
 20
-33.07714740514168
 30
0.0
 11
404.7662486809568
 21
97.45393763679536
 31
0.0
  0
SOLID
  5
2FA
330
2F5
100
AcDbEntity
  8
LAYER 02
 62
     0
100
AcDbTrace
 10
291.7332415306865
 20
243.3807961297095
 30
0.0
 11
289.6368970498033
 21
241.732630200993
 31
0.0
 12
285.7405715040955
 22
248.8457466080008
 32
0.0
 13
285.7405715040955
 23
248.8457466080008
 33
0.0
  0
SOLID
  5
2FB
330
2F5
100
AcDbEntity
  8
LAYER 02
 62
     0
100
AcDbTrace
 10
506.3428544607189
 20
-33.90123036949992
 30
0.0
 11
508.4391989416021
 21
-32.25306444078344
 31
0.0
 12
512.33552448731
 22
-39.36618084779116
 32
0.0
 13
512.33552448731
 23
-39.36618084779116
 33
0.0
  0
MTEXT
  5
2FC
330
2F5
100
AcDbEntity
  8
LAYER 02
 62
     0
100
AcDbMText
 10
399.0380479957028
 20
104.7397828801048
 30
0.0
 40
8.0
 41
0.0
 71
     5
 72
     1
  1
\A1;367
  7
TAHOMA
 11
0.6180622232686778
 21
-0.7861291803311841
 31
0.0
 73
     1
 44
1.0
  0
POINT
  5
2FD
330
2F5
100
AcDbEntity
  8
Defpoints
 62
     0
100
AcDbPoint
 10
219.639800999545
 20
196.876693429484
 30
0.0
  0
POINT
  5
2FE
330
2F5
100
AcDbEntity
  8
Defpoints
 62
     0
100
AcDbPoint
 10
446.2347539827595
 20
-91.33523402630794
 30
0.0
  0
POINT
  5
2FF
330
2F5
100
AcDbEntity
  8
Defpoints
 62
     0
100
AcDbPoint
 10
512.33552448731
 20
-39.36618084779116
 30
0.0
  0
ENDBLK
  5
301
330
2F5
100
AcDbEntity
  8
0
100
AcDbBlockEnd
  0
BLOCK
  5
30E
330
303
100
AcDbEntity
  8
0
100
AcDbBlockBegin
  2
*D22
 70
     1
 71
     0
 10
0.0
 20
0.0
 30
0.0
  3
*D22
  1

  0
LINE
  5
304
330
303
100
AcDbEntity
  8
LAYER 02
 62
     0
370
    -2
100
AcDbLine
 10
356.645042115088
 20
-123.1452929149866
 30
0.0
 11
350.6962183019162
 21
-107.4644578505708
 31
0.0
  0
LINE
  5
305
330
303
100
AcDbEntity
  8
LAYER 02
 62
     0
370
    -2
100
AcDbLine
 10
445.4310343030199
 20
-89.46263364116895
 30
0.0
 11
439.4822104898482
 21
-73.78179857675312
 31
0.0
  0
LINE
  5
306
330
303
100
AcDbEntity
  8
LAYER 02
 62
     0
370
    -2
100
AcDbLine
 10
359.5948617825786
 20
-108.3667572488113
 30
0.0
 11
390.6550528021745
 21
-96.58348147172374
 31
0.0
  0
LINE
  5
307
330
303
100
AcDbEntity
  8
LAYER 02
 62
     0
370
    -2
100
AcDbLine
 10
433.4211848828584
 20
-80.35933372233869
 30
0.0
 11
402.3609938632625
 21
-92.14260949942619
 31
0.0
  0
SOLID
  5
308
330
303
100
AcDbEntity
  8
LAYER 02
 62
     0
100
AcDbTrace
 10
359.1219254702998
 20
-107.1201181581736
 30
0.0
 11
360.0677980948573
 21
-109.613396339449
 31
0.0
 12
352.1150272387525
 22
-111.2043751224838
 32
0.0
 13
352.1150272387525
 23
-111.2043751224838
 33
0.0
  0
SOLID
  5
309
330
303
100
AcDbEntity
  8
LAYER 02
 62
     0
100
AcDbTrace
 10
433.8941211951371
 20
-81.60597281297638
 30
0.0
 11
432.9482485705796
 21
-79.112694631701
 31
0.0
 12
440.9010194266845
 22
-77.52171584866616
 32
0.0
 13
440.9010194266845
 23
-77.52171584866616
 33
0.0
  0
MTEXT
  5
30A
330
303
100
AcDbEntity
  8
LAYER 02
 62
     0
100
AcDbMText
 10
396.5080233327185
 20
-94.36304548557499
 30
0.0
 40
8.0
 41
0.0
 71
     5
 72
     1
  1
\A1;95
  7
TAHOMA
 11
0.9349793179782622
 21
0.3547022342090665
 31
0.0
 73
     1
 44
1.0
  0
POINT
  5
30B
330
303
100
AcDbEntity
  8
Defpoints
 62
     0
100
AcDbPoint
 10
357.3544465835061
 20
-125.0152515509431
 30
0.0
  0
POINT
  5
30C
330
303
100
AcDbEntity
  8
Defpoints
 62
     0
100
AcDbPoint
 10
446.1404387714381
 20
-91.33259227712547
 30
0.0
  0
POINT
  5
30D
330
303
100
AcDbEntity
  8
Defpoints
 62
     0
100
AcDbPoint
 10
440.9010194266845
 20
-77.52171584866616
 30
0.0
  0
ENDBLK
  5
30F
330
303
100
AcDbEntity
  8
0
100
AcDbBlockEnd
  0
BLOCK
  5
33A
330
32F
100
AcDbEntity
  8
0
100
AcDbBlockBegin
  2
*D23
 70
     1
 71
     0
 10
0.0
 20
0.0
 30
0.0
  3
*D23
  1

  0
LINE
  5
330
330
32F
100
AcDbEntity
  8
LAYER 02
 62
     0
370
    -2
100
AcDbLine
 10
353.1273369997771
 20
-257.1890984245744
 30
0.0
 11
382.2541735789127
 21
-262.1419621147752
 31
0.0
  0
LINE
  5
331
330
32F
100
AcDbEntity
  8
LAYER 02
 62
     0
370
    -2
100
AcDbLine
 10
359.3834431209045
 20
-220.3981443403075
 30
0.0
 11
388.5102797000401
 21
-225.3510080305082
 31
0.0
  0
LINE
  5
332
330
32F
100
AcDbEntity
  8
LAYER 02
 62
     0
370
    -2
100
AcDbLine
 10
379.6518857654008
 20
-253.5846203466998
 30
0.0
 11
380.3887460141665
 21
-249.2512872711457
 31
0.0
  0
LINE
  5
333
330
32F
100
AcDbEntity
  8
LAYER 02
 62
     0
370
    -2
100
AcDbLine
 10
383.2257789736869
 20
-232.5672433421629
 30
0.0
 11
382.4889187249213
 21
-236.900576417717
 31
0.0
  0
SOLID
  5
334
330
32F
100
AcDbEntity
  8
LAYER 02
 62
     0
100
AcDbTrace
 10
378.3374210087567
 20
-253.361102603963
 30
0.0
 11
380.966350522045
 21
-253.8081380894366
 31
0.0
 12
378.3107793089802
 22
-261.4714088865649
 32
0.0
 13
378.3107793089802
 23
-261.4714088865649
 33
0.0
  0
SOLID
  5
335
330
32F
100
AcDbEntity
  8
LAYER 02
 62
     0
100
AcDbTrace
 10
384.5402437303311
 20
-232.7907610848997
 30
0.0
 11
381.9113142170428
 21
-232.3437255994261
 31
0.0
 12
384.5668854301076
 22
-224.6804548022979
 32
0.0
 13
384.5668854301076
 23
-224.6804548022979
 33
0.0
  0
MTEXT
  5
336
330
32F
100
AcDbEntity
  8
LAYER 02
 62
     0
100
AcDbMText
 10
381.4388323695439
 20
-243.0759318444314
 30
0.0
 40
8.0
 41
0.0
 71
     5
 72
     1
  1
\A1;37
  7
TAHOMA
 11
0.1676383070525865
 21
0.9858485674831315
 31
0.0
 73
     1
 44
1.0
  0
POINT
  5
337
330
32F
100
AcDbEntity
  8
Defpoints
 62
     0
100
AcDbPoint
 10
351.1556398648108
 20
-256.8538218104692
 30
0.0
  0
POINT
  5
338
330
32F
100
AcDbEntity
  8
Defpoints
 62
     0
100
AcDbPoint
 10
357.4117459859382
 20
-220.0628677262023
 30
0.0
  0
POINT
  5
339
330
32F
100
AcDbEntity
  8
Defpoints
 62
     0
100
AcDbPoint
 10
384.5668854301076
 20
-224.6804548022979
 30
0.0
  0
ENDBLK
  5
33B
330
32F
100
AcDbEntity
  8
0
100
AcDbBlockEnd
  0
BLOCK
  5
352
330
347
100
AcDbEntity
  8
0
100
AcDbBlockBegin
  2
*D24
 70
     1
 71
     0
 10
0.0
 20
0.0
 30
0.0
  3
*D24
  1

  0
LINE
  5
348
330
347
100
AcDbEntity
  8
LAYER 02
 62
     0
370
    -2
100
AcDbLine
 10
8.447789698873947
 20
118.1627969335231
 30
0.0
 11
27.54422697326297
 21
145.8384998608163
 31
0.0
  0
LINE
  5
349
330
347
100
AcDbEntity
  8
LAYER 02
 62
     0
370
    -2
100
AcDbLine
 10
358.4903052927516
 20
-123.3690969435302
 30
0.0
 11
377.5867425671406
 21
-95.69339401623698
 31
0.0
  0
LINE
  5
34A
330
347
100
AcDbEntity
  8
LAYER 02
 62
     0
370
    -2
100
AcDbLine
 10
31.85712798503561
 20
138.0027558079103
 30
0.0
 11
192.6095176429066
 21
27.08243216249686
 31
0.0
  0
LINE
  5
34B
330
347
100
AcDbEntity
  8
LAYER 02
 62
     0
370
    -2
100
AcDbLine
 10
368.7304067177523
 20
-94.44226839391155
 30
0.0
 11
207.9780170598814
 21
16.47805525150189
 31
0.0
  0
SOLID
  5
34C
330
347
100
AcDbEntity
  8
LAYER 02
 62
     0
100
AcDbTrace
 10
32.61436712463822
 20
139.1001922130071
 30
0.0
 11
31.099888845433
 21
136.9053194028136
 31
0.0
 12
25.27250955445513
 22
142.546190645526
 32
0.0
 13
25.27250955445513
 23
142.546190645526
 33
0.0
  0
SOLID
  5
34D
330
347
100
AcDbEntity
  8
LAYER 02
 62
     0
100
AcDbTrace
 10
367.9731675781497
 20
-95.53970479900829
 30
0.0
 11
369.4876458573549
 21
-93.3448319888148
 31
0.0
 12
375.3150251483328
 22
-98.98570323152722
 32
0.0
 13
375.3150251483328
 23
-98.98570323152722
 33
0.0
  0
MTEXT
  5
34E
330
347
100
AcDbEntity
  8
LAYER 02
 62
     0
100
AcDbMText
 10
200.293767351394
 20
21.7802437069994
 30
0.0
 40
8.0
 41
0.0
 71
     5
 72
     1
  1
\A1;425
  7
TAHOMA
 11
0.8230773038225603
 21
-0.5679293547019602
 31
0.0
 73
     1
 44
1.0
  0
POINT
  5
34F
330
347
100
AcDbEntity
  8
Defpoints
 62
     0
100
AcDbPoint
 10
7.311930989470028
 20
116.516642325878
 30
0.0
  0
POINT
  5
350
330
347
100
AcDbEntity
  8
Defpoints
 62
     0
100
AcDbPoint
 10
357.3544465833477
 20
-125.0152515511753
 30
0.0
  0
POINT
  5
351
330
347
100
AcDbEntity
  8
Defpoints
 62
     0
100
AcDbPoint
 10
375.3150251483328
 20
-98.98570323152722
 30
0.0
  0
ENDBLK
  5
353
330
347
100
AcDbEntity
  8
0
100
AcDbBlockEnd
  0
BLOCK
  5
360
330
355
100
AcDbEntity
  8
0
100
AcDbBlockBegin
  2
*D25
 70
     1
 71
     0
 10
0.0
 20
0.0
 30
0.0
  3
*D25
  1

  0
LINE
  5
356
330
355
100
AcDbEntity
  8
LAYER 02
 62
     0
370
    -2
100
AcDbLine
 10
7.311930989470028
 20
118.516642325878
 30
0.0
 11
7.311930989470028
 21
240.5359775677293
 31
0.0
  0
LINE
  5
357
330
355
100
AcDbEntity
  8
LAYER 02
 62
     0
370
    -2
100
AcDbLine
 10
219.2843920432833
 20
198.9324377140132
 30
0.0
 11
219.2843920432833
 21
240.5359775677293
 31
0.0
  0
LINE
  5
358
330
355
100
AcDbEntity
  8
LAYER 02
 62
     0
370
    -2
100
AcDbLine
 10
15.31193098947003
 20
236.5359775677293
 30
0.0
 11
104.1021615163767
 21
236.5359775677293
 31
0.0
  0
LINE
  5
359
330
355
100
AcDbEntity
  8
LAYER 02
 62
     0
370
    -2
100
AcDbLine
 10
211.2843920432833
 20
236.5359775677293
 30
0.0
 11
122.4941615163767
 21
236.5359775677293
 31
0.0
  0
SOLID
  5
35A
330
355
100
AcDbEntity
  8
LAYER 02
 62
     0
100
AcDbTrace
 10
15.31193098947003
 20
237.8693109010626
 30
0.0
 11
15.31193098947003
 21
235.2026442343959
 31
0.0
 12
7.311930989470028
 22
236.5359775677293
 32
0.0
 13
7.311930989470028
 23
236.5359775677293
 33
0.0
  0
SOLID
  5
35B
330
355
100
AcDbEntity
  8
LAYER 02
 62
     0
100
AcDbTrace
 10
211.2843920432833
 20
235.2026442343959
 30
0.0
 11
211.2843920432833
 21
237.8693109010626
 31
0.0
 12
219.2843920432833
 22
236.5359775677293
 32
0.0
 13
219.2843920432833
 23
236.5359775677293
 33
0.0
  0
MTEXT
  5
35C
330
355
100
AcDbEntity
  8
LAYER 02
 62
     0
100
AcDbMText
 10
113.2981615163767
 20
236.5359775677293
 30
0.0
 40
8.0
 41
0.0
 71
     5
 72
     1
  1
\A1;212
  7
TAHOMA
 73
     1
 44
1.0
  0
POINT
  5
35D
330
355
100
AcDbEntity
  8
Defpoints
 62
     0
100
AcDbPoint
 10
7.311930989470028
 20
116.516642325878
 30
0.0
  0
POINT
  5
35E
330
355
100
AcDbEntity
  8
Defpoints
 62
     0
100
AcDbPoint
 10
219.2843920432833
 20
196.9324377140132
 30
0.0
  0
POINT
  5
35F
330
355
100
AcDbEntity
  8
Defpoints
 62
     0
100
AcDbPoint
 10
219.2843920432833
 20
236.5359775677293
 30
0.0
  0
ENDBLK
  5
361
330
355
100
AcDbEntity
  8
0
100
AcDbBlockEnd
  0
BLOCK
  5
36E
330
363
100
AcDbEntity
  8
0
100
AcDbBlockBegin
  2
*D26
 70
     1
 71
     0
 10
0.0
 20
0.0
 30
0.0
  3
*D26
  1

  0
LINE
  5
364
330
363
100
AcDbEntity
  8
LAYER 02
 62
     0
370
    -2
100
AcDbLine
 10
359.3758025687352
 20
-219.9756300699548
 30
0.0
 11
462.2623098781368
 21
-219.9756300699548
 31
0.0
  0
LINE
  5
365
330
363
100
AcDbEntity
  8
LAYER 02
 62
     0
370
    -2
100
AcDbLine
 10
359.3544465835052
 20
-125.0152515509446
 30
0.0
 11
462.2623098781368
 21
-125.0152515509446
 31
0.0
  0
LINE
  5
366
330
363
100
AcDbEntity
  8
LAYER 02
 62
     0
370
    -2
100
AcDbLine
 10
458.2623098781368
 20
-211.9756300699548
 30
0.0
 11
458.2623098781368
 21
-178.7554408104497
 31
0.0
  0
LINE
  5
367
330
363
100
AcDbEntity
  8
LAYER 02
 62
     0
370
    -2
100
AcDbLine
 10
458.2623098781368
 20
-133.0152515509446
 30
0.0
 11
458.2623098781368
 21
-166.2354408104496
 31
0.0
  0
SOLID
  5
368
330
363
100
AcDbEntity
  8
LAYER 02
 62
     0
100
AcDbTrace
 10
456.9289765448035
 20
-211.9756300699548
 30
0.0
 11
459.5956432114701
 21
-211.9756300699548
 31
0.0
 12
458.2623098781368
 22
-219.9756300699548
 32
0.0
 13
458.2623098781368
 23
-219.9756300699548
 33
0.0
  0
SOLID
  5
369
330
363
100
AcDbEntity
  8
LAYER 02
 62
     0
100
AcDbTrace
 10
459.5956432114701
 20
-133.0152515509446
 30
0.0
 11
456.9289765448035
 21
-133.0152515509446
 31
0.0
 12
458.2623098781368
 22
-125.0152515509446
 32
0.0
 13
458.2623098781368
 23
-125.0152515509446
 33
0.0
  0
MTEXT
  5
36A
330
363
100
AcDbEntity
  8
LAYER 02
 62
     0
100
AcDbMText
 10
458.2623098781368
 20
-172.4954408104497
 30
0.0
 40
8.0
 41
0.0
 71
     5
 72
     1
  1
\A1;95
  7
TAHOMA
 11
0.0
 21
1.0
 31
0.0
 73
     1
 44
1.0
  0
POINT
  5
36B
330
363
100
AcDbEntity
  8
Defpoints
 62
     0
100
AcDbPoint
 10
357.3758025687352
 20
-219.9756300699548
 30
0.0
  0
POINT
  5
36C
330
363
100
AcDbEntity
  8
Defpoints
 62
     0
100
AcDbPoint
 10
357.3544465835052
 20
-125.0152515509446
 30
0.0
  0
POINT
  5
36D
330
363
100
AcDbEntity
  8
Defpoints
 62
     0
100
AcDbPoint
 10
458.2623098781368
 20
-125.0152515509446
 30
0.0
  0
ENDBLK
  5
36F
330
363
100
AcDbEntity
  8
0
100
AcDbBlockEnd
  0
BLOCK
  5
37E
330
373
100
AcDbEntity
  8
0
100
AcDbBlockBegin
  2
*D27
 70
     1
 71
     0
 10
0.0
 20
0.0
 30
0.0
  3
*D27
  1

  0
LINE
  5
374
330
373
100
AcDbEntity
  8
LAYER 02
 62
     0
370
    -2
100
AcDbLine
 10
-431.5165767924851
 20
-93.33259227708692
 30
0.0
 11
-431.5165767924851
 21
-282.066493040689
 31
0.0
  0
LINE
  5
375
330
373
100
AcDbEntity
  8
LAYER 02
 62
     0
370
    -2
100
AcDbLine
 10
-409.766361716012
 20
-222.1175929800024
 30
0.0
 11
-409.766361716012
 21
-282.066493040689
 31
0.0
  0
LINE
  5
376
330
373
100
AcDbEntity
  8
LAYER 02
 62
     0
370
    -2
100
AcDbLine
 10
-423.5165767924851
 20
-278.066493040689
 30
0.0
 11
-417.766361716012
 21
-278.066493040689
 31
0.0
  0
LINE
  5
377
330
373
100
AcDbEntity
  8
LAYER 02
 62
     0
370
    -2
100
AcDbLine
 10
-409.766361716012
 20
-278.066493040689
 30
0.0
 11
-401.766361716012
 21
-278.066493040689
 31
0.0
  0
SOLID
  5
378
330
373
100
AcDbEntity
  8
LAYER 02
 62
     0
100
AcDbTrace
 10
-423.5165767924851
 20
-276.7331597073557
 30
0.0
 11
-423.5165767924851
 21
-279.3998263740223
 31
0.0
 12
-431.5165767924851
 22
-278.066493040689
 32
0.0
 13
-431.5165767924851
 23
-278.066493040689
 33
0.0
  0
SOLID
  5
379
330
373
100
AcDbEntity
  8
LAYER 02
 62
     0
100
AcDbTrace
 10
-417.766361716012
 20
-279.3998263740223
 30
0.0
 11
-417.766361716012
 21
-276.7331597073557
 31
0.0
 12
-409.766361716012
 22
-278.066493040689
 32
0.0
 13
-409.766361716012
 23
-278.066493040689
 33
0.0
  0
MTEXT
  5
37A
330
373
100
AcDbEntity
  8
LAYER 02
 62
     0
100
AcDbMText
 10
-395.574361716012
 20
-278.066493040689
 30
0.0
 40
8.0
 41
0.0
 71
     5
 72
     1
  1
\A1;22
  7
TAHOMA
 73
     1
 44
1.0
  0
POINT
  5
37B
330
373
100
AcDbEntity
  8
Defpoints
 62
     0
100
AcDbPoint
 10
-431.5165767924851
 20
-91.33259227708692
 30
0.0
  0
POINT
  5
37C
330
373
100
AcDbEntity
  8
Defpoints
 62
     0
100
AcDbPoint
 10
-409.766361716012
 20
-220.1175929800024
 30
0.0
  0
POINT
  5
37D
330
373
100
AcDbEntity
  8
Defpoints
 62
     0
100
AcDbPoint
 10
-409.766361716012
 20
-278.066493040689
 30
0.0
  0
ENDBLK
  5
37F
330
373
100
AcDbEntity
  8
0
100
AcDbBlockEnd
  0
BLOCK
  5
38C
330
381
100
AcDbEntity
  8
0
100
AcDbBlockBegin
  2
*D28
 70
     1
 71
     0
 10
0.0
 20
0.0
 30
0.0
  3
*D28
  1

  0
LINE
  5
382
330
381
100
AcDbEntity
  8
LAYER 02
 62
     0
370
    -2
100
AcDbLine
 10
-334.0481174816977
 20
-256.31889207996
 30
0.0
 11
-295.0131510826442
 21
-249.6643009744847
 31
0.0
  0
LINE
  5
383
330
381
100
AcDbEntity
  8
LAYER 02
 62
     0
370
    -2
100
AcDbLine
 10
-340.3207725214953
 20
-219.5243129945683
 30
0.0
 11
-301.2858061224418
 21
-212.869721889093
 31
0.0
  0
LINE
  5
384
330
381
100
AcDbEntity
  8
LAYER 02
 62
     0
370
    -2
100
AcDbLine
 10
-300.3006880296674
 20
-242.4502900905267
 30
0.0
 11
-301.039905410771
 21
-238.1141370233256
 31
0.0
  0
LINE
  5
385
330
381
100
AcDbEntity
  8
LAYER 02
 62
     0
370
    -2
100
AcDbLine
 10
-303.8844926613942
 20
-221.4281579770864
 30
0.0
 11
-303.1452752802905
 21
-225.7643110442876
 31
0.0
  0
SOLID
  5
386
330
381
100
AcDbEntity
  8
LAYER 02
 62
     0
100
AcDbTrace
 10
-301.6150586106634
 20
-242.674360957866
 30
0.0
 11
-298.9863174486715
 21
-242.2262192231875
 31
0.0
 12
-298.956262825632
 22
-250.3365135765024
 32
0.0
 13
-298.956262825632
 23
-250.3365135765024
 33
0.0
  0
SOLID
  5
387
330
381
100
AcDbEntity
  8
LAYER 02
 62
     0
100
AcDbTrace
 10
-302.5701220803982
 20
-221.2040871097472
 30
0.0
 11
-305.1988632423901
 21
-221.6522288444257
 31
0.0
 12
-305.2289178654296
 22
-213.5419344911107
 32
0.0
 13
-305.2289178654296
 23
-213.5419344911107
 33
0.0
  0
MTEXT
  5
388
330
381
100
AcDbEntity
  8
LAYER 02
 62
     0
100
AcDbMText
 10
-302.0925903455308
 20
-231.9392240338066
 30
0.0
 40
8.0
 41
0.0
 71
     5
 72
     1
  1
\A1;37
  7
TAHOMA
 11
0.1680531505044287
 21
-0.985777935746959
 31
0.0
 73
     1
 44
1.0
  0
POINT
  5
389
330
381
100
AcDbEntity
  8
Defpoints
 62
     0
100
AcDbPoint
 10
-336.0196733531916
 20
-256.6549983809688
 30
0.0
  0
POINT
  5
38A
330
381
100
AcDbEntity
  8
Defpoints
 62
     0
100
AcDbPoint
 10
-342.2923283929892
 20
-219.8604192955771
 30
0.0
  0
POINT
  5
38B
330
381
100
AcDbEntity
  8
Defpoints
 62
     0
100
AcDbPoint
 10
-305.2289178654296
 20
-213.5419344911107
 30
0.0
  0
ENDBLK
  5
38D
330
381
100
AcDbEntity
  8
0
100
AcDbBlockEnd
  0
BLOCK
  5
3A0
330
395
100
AcDbEntity
  8
0
100
AcDbBlockBegin
  2
*D29
 70
     1
 71
     0
 10
0.0
 20
0.0
 30
0.0
  3
*D29
  1

  0
LINE
  5
396
330
395
100
AcDbEntity
  8
LAYER 02
 62
     0
370
    -2
100
AcDbLine
 10
-431.5165767924851
 20
-93.33259227708692
 30
0.0
 11
-431.5165767924851
 21
-418.4882627964415
 31
0.0
  0
LINE
  5
397
330
395
100
AcDbEntity
  8
LAYER 02
 62
     0
370
    -2
100
AcDbLine
 10
7.541171804044495
 20
-112.5093686178877
 30
0.0
 11
7.541171804044495
 21
-418.4882627964415
 31
0.0
  0
LINE
  5
398
330
395
100
AcDbEntity
  8
LAYER 02
 62
     0
370
    -2
100
AcDbLine
 10
-423.5165767924851
 20
-414.4882627964415
 30
0.0
 11
-221.3837024942203
 21
-414.4882627964415
 31
0.0
  0
LINE
  5
399
330
395
100
AcDbEntity
  8
LAYER 02
 62
     0
370
    -2
100
AcDbLine
 10
-0.4588281959555047
 20
-414.4882627964415
 30
0.0
 11
-202.5917024942203
 21
-414.4882627964415
 31
0.0
  0
SOLID
  5
39A
330
395
100
AcDbEntity
  8
LAYER 02
 62
     0
100
AcDbTrace
 10
-423.5165767924851
 20
-413.1549294631081
 30
0.0
 11
-423.5165767924851
 21
-415.8215961297748
 31
0.0
 12
-431.5165767924851
 22
-414.4882627964415
 32
0.0
 13
-431.5165767924851
 23
-414.4882627964415
 33
0.0
  0
SOLID
  5
39B
330
395
100
AcDbEntity
  8
LAYER 02
 62
     0
100
AcDbTrace
 10
-0.4588281959555047
 20
-415.8215961297748
 30
0.0
 11
-0.4588281959555047
 21
-413.1549294631081
 31
0.0
 12
7.541171804044495
 22
-414.4882627964415
 32
0.0
 13
7.541171804044495
 23
-414.4882627964415
 33
0.0
  0
MTEXT
  5
39C
330
395
100
AcDbEntity
  8
LAYER 02
 62
     0
100
AcDbMText
 10
-211.9877024942203
 20
-414.4882627964415
 30
0.0
 40
8.0
 41
0.0
 71
     5
 72
     1
  1
\A1;439
  7
TAHOMA
 73
     1
 44
1.0
  0
POINT
  5
39D
330
395
100
AcDbEntity
  8
Defpoints
 62
     0
100
AcDbPoint
 10
-431.5165767924851
 20
-91.33259227708692
 30
0.0
  0
POINT
  5
39E
330
395
100
AcDbEntity
  8
Defpoints
 62
     0
100
AcDbPoint
 10
7.541171804044495
 20
-110.5093686178877
 30
0.0
  0
POINT
  5
39F
330
395
100
AcDbEntity
  8
Defpoints
 62
     0
100
AcDbPoint
 10
7.541171804044495
 20
-414.4882627964415
 30
0.0
  0
ENDBLK
  5
3A1
330
395
100
AcDbEntity
  8
0
100
AcDbBlockEnd
  0
ENDSEC
  0
SECTION
  2
ENTITIES
  0
MTEXT
  5
2B
330
1F
100
AcDbEntity
  8
LAYER 01
100
AcDbMText
 10
486.9946816226208
 20
-455.9338548985536
 30
0.0
 40
4.764705882353041
 41
102.9483870967764
 71
     1
 72
     1
  1
\fTahoma;PROGETTISTA: DANIEL VALSESIA\Pdanielvalsesia@hotmail.com
 73
     2
 44
0.9638554216867471
  0
POLYLINE
  5
2D
330
1F
100
AcDbEntity
  8
DEFAULT
100
AcDb2dPolyline
 66
     1
 10
0.0
 20
0.0
 30
0.0
  0
VERTEX
  5
2F
330
2D
100
AcDbEntity
  8
DEFAULT
100
AcDbVertex
100
AcDb2dVertex
 10
357.7691245446402
 20
-124.8577136211681
 30
0.0
  0
VERTEX
  5
30
330
2D
100
AcDbEntity
  8
DEFAULT
100
AcDbVertex
100
AcDb2dVertex
 10
438.276318684797
 20
-219.3421323076965
 30
0.0
  0
VERTEX
  5
31
330
2D
100
AcDbEntity
  8
DEFAULT
100
AcDbVertex
100
AcDb2dVertex
 10
357.387895017792
 20
-219.3603235997711
 30
0.0
  0
SEQEND
  5
2E
330
2D
100
AcDbEntity
  8
DEFAULT
  0
LINE
  5
32
330
1F
100
AcDbEntity
  8
DEFAULT
100
AcDbLine
 10
7.464956084517539
 20
116.5727276927316
 30
0.0
 11
219.5171577708452
 21
197.0187742104546
 31
0.0
  0
LINE
  5
33
330
1F
100
AcDbEntity
  8
DEFAULT
100
AcDbLine
 10
7.515961694475877
 20
-110.2260819134434
 30
0.0
 11
7.464956084517539
 21
116.5727276927316
 31
0.0
  0
LINE
  5
34
330
1F
100
AcDbEntity
  8
DEFAULT
100
AcDbLine
 10
-342.3067757485187
 20
-219.8436030935779
 30
0.0
 11
7.515961694475877
 21
-110.2260819134434
 31
0.0
  0
LINE
  5
35
330
1F
100
AcDbEntity
  8
DEFAULT
100
AcDbLine
 10
7.464956084517539
 20
116.5727276927316
 30
0.0
 11
-342.3281397675275
 21
-124.8475020066019
 31
0.0
  0
LINE
  5
36
330
1F
100
AcDbEntity
  8
DEFAULT
100
AcDbLine
 10
357.6391520461898
 20
-125.0500266000825
 30
0.0
 11
7.464956084517539
 21
116.5727276927316
 31
0.0
  0
POLYLINE
  5
37
330
1F
100
AcDbEntity
  8
DEFAULT
100
AcDb2dPolyline
 66
     1
 10
0.0
 20
0.0
 30
0.0
  0
VERTEX
  5
39
330
37
100
AcDbEntity
  8
DEFAULT
100
AcDbVertex
100
AcDb2dVertex
 10
-342.730584604567
 20
-125.0152515509431
 30
0.0
  0
VERTEX
  5
3A
330
37
100
AcDbEntity
  8
DEFAULT
100
AcDbVertex
100
AcDb2dVertex
 10
-423.1952727134428
 20
-219.5358717900922
 30
0.0
  0
VERTEX
  5
3B
330
37
100
AcDbEntity
  8
DEFAULT
100
AcDbVertex
100
AcDb2dVertex
 10
-342.3068490464378
 20
-219.5176804980177
 30
0.0
  0
SEQEND
  5
38
330
37
100
AcDbEntity
  8
DEFAULT
  0
MTEXT
  5
3C
330
1F
100
AcDbEntity
  8
LAYER 01
100
AcDbMText
 10
104.932835570966
 20
58.1285821315989
 30
0.0
 40
3.0
 41
28.18064516129033
 71
     1
 72
     1
  1
\fTahoma;PIEGARE QUI!
 11
0.8190116927217128
 21
-0.5737768269851221
 31
0.0
 73
     2
 44
0.9638554216867472
  0
MTEXT
  5
3D
330
1F
100
AcDbEntity
  8
LAYER 01
100
AcDbMText
 10
207.05668256309
 20
-13.86664676768142
 30
0.0
 40
3.0
 41
28.18064516129033
 71
     1
 72
     1
  1
\fTahoma;PIEGARE QUI!
 11
0.8190116927217421
 21
-0.5737768269850801
 31
0.0
 73
     2
 44
0.9638554216867473
  0
MTEXT
  5
3E
330
1F
100
AcDbEntity
  8
LAYER 01
100
AcDbMText
 10
292.7528019740152
 20
-74.60543871883606
 30
0.0
 40
3.0
 41
28.18064516129033
 71
     1
 72
     1
  1
\fTahoma;PIEGARE QUI!
 11
0.8190116927217035
 21
-0.5737768269851354
 31
0.0
 73
     2
 44
0.963855421686747
  0
MTEXT
  5
3F
330
1F
100
AcDbEntity
  8
LAYER 01
100
AcDbMText
 10
-95.52853707614189
 20
50.78029961598142
 30
0.0
 40
3.0
 41
28.18064516129033
 71
     1
 72
     1
  1
\fTahoma;PIEGARE QUI!
 11
0.8209264738441711
 21
0.571033908399296
 31
0.0
 73
     2
 44
0.9638554216867472
  0
MTEXT
  5
40
330
1F
100
AcDbEntity
  8
LAYER 01
100
AcDbMText
 10
-182.0844264249478
 20
-8.72687431132264
 30
0.0
 40
3.0
 41
28.18064516129033
 71
     1
 72
     1
  1
\fTahoma;PIEGARE QUI!
 11
0.8209264738441744
 21
0.5710339083992911
 31
0.0
 73
     2
 44
0.9638554216867472
  0
MTEXT
  5
41
330
1F
100
AcDbEntity
  8
LAYER 01
100
AcDbMText
 10
-284.8695450266547
 20
-79.77483348513415
 30
0.0
 40
3.0
 41
28.18064516129033
 71
     1
 72
     1
  1
\fTahoma;PIEGARE QUI!
 11
0.820926473844181
 21
0.5710339083992817
 31
0.0
 73
     2
 44
0.9638554216867472
  0
SPLINE
  5
43
330
1F
100
AcDbEntity
  8
MAKE2D VISIBLE LINES
100
AcDbSpline
210
0.0
220
0.0
230
1.0
 70
    24
 71
     2
 72
     6
 73
     3
 74
     0
 42
0.0000000001
 43
0.0000000001
 40
54.28087384129246
 40
54.28087384129246
 40
54.28087384129246
 40
234.2381990146156
 40
234.2381990146156
 40
234.2381990146156
 10
-431.885317182136
 20
130.7657593245656
 30
0.0
 10
-410.8126863044935
 20
143.5260804988971
 30
0.0
 10
-389.7400554268509
 20
156.2864016732286
 30
0.0
  0
SPLINE
  5
44
330
1F
100
AcDbEntity
  8
MAKE2D VISIBLE LINES
100
AcDbSpline
210
0.0
220
0.0
230
1.0
 70
    24
 71
     2
 72
     6
 73
     3
 74
     0
 42
0.0000000001
 43
0.0000000001
 40
232.3326116850077
 40
232.3326116850077
 40
232.3326116850077
 40
309.2773262857925
 40
309.2773262857925
 40
309.2773262857925
 10
-389.7400554268509
 20
156.2864016732286
 30
0.0
 10
-380.655036141119
 20
161.6166165254686
 30
0.0
 10
-371.5700168553871
 20
166.9468313777086
 30
0.0
  0
SPLINE
  5
45
330
1F
100
AcDbEntity
  8
MAKE2D VISIBLE LINES
100
AcDbSpline
210
0.0
220
0.0
230
1.0
 70
    24
 71
     2
 72
     6
 73
     3
 74
     0
 42
0.0000000001
 43
0.0000000001
 40
-14.98911452975723
 40
-14.98911452975723
 40
-14.98911452975723
 40
0.0
 40
0.0
 40
0.0
 10
-371.5700168553871
 20
166.9468313777086
 30
0.0
 10
-371.5569896199684
 20
168.9987005647797
 30
0.0
 10
-371.5439623845497
 20
171.0505697518508
 30
0.0
  0
SPLINE
  5
46
330
1F
100
AcDbEntity
  8
MAKE2D VISIBLE LINES
100
AcDbSpline
210
0.0
220
0.0
230
1.0
 70
    24
 71
     2
 72
     6
 73
     3
 74
     0
 42
0.0000000001
 43
0.0000000001
 40
0.0
 40
0.0
 40
0.0
 40
40.76301372659018
 40
40.76301372659018
 40
40.76301372659018
 10
-444.5976734818506
 20
123.0679189263362
 30
0.0
 10
-439.8244088153893
 20
125.9583216742321
 30
0.0
 10
-435.051144148928
 20
128.848724422128
 30
0.0
  0
MTEXT
  5
47
330
1F
100
AcDbEntity
  8
LAYER 01
100
AcDbMText
 10
-425.9183911582463
 20
125.1463442815884
 30
0.0
 40
3.0
 41
25.16129032258064
 71
     1
 72
     1
  1
\fTahoma;COROPLAST
 73
     2
 44
0.9638554216867472
  0
POLYLINE
  5
48
330
1F
100
AcDbEntity
  8
LAYER 01
100
AcDb2dPolyline
 66
     1
 10
0.0
 20
0.0
 30
0.0
  0
VERTEX
  5
4A
330
48
100
AcDbEntity
  8
LAYER 01
100
AcDbVertex
100
AcDb2dVertex
 10
-432.7116591882048
 20
128.6786607296874
 30
0.0
  0
VERTEX
  5
4B
330
48
100
AcDbEntity
  8
LAYER 01
100
AcDbVertex
100
AcDb2dVertex
 10
-426.9150447136581
 20
125.2540059307139
 30
0.0
  0
SEQEND
  5
49
330
48
100
AcDbEntity
  8
LAYER 01
  0
POLYLINE
  5
4C
330
1F
100
AcDbEntity
  8
LAYER 01
100
AcDb2dPolyline
 66
     1
 10
0.0
 20
0.0
 30
0.0
  0
VERTEX
  5
4E
330
4C
100
AcDbEntity
  8
LAYER 01
100
AcDbVertex
100
AcDb2dVertex
 10
-435.8604374212919
 20
130.5389670402408
 30
0.0
  0
VERTEX
  5
4F
330
4C
100
AcDbEntity
  8
LAYER 01
100
AcDbVertex
100
AcDb2dVertex
 10
-431.4644083663565
 20
130.7897734086889
 30
0.0
  0
VERTEX
  5
50
330
4C
100
AcDbEntity
  8
LAYER 01
100
AcDbVertex
100
AcDb2dVertex
 10
-432.7116591882048
 20
128.6786607296874
 30
0.0
  0
SEQEND
  5
4D
330
4C
100
AcDbEntity
  8
LAYER 01
  0
POLYLINE
  5
51
330
1F
100
AcDbEntity
  8
LAYER 01
100
AcDb2dPolyline
 66
     1
 10
0.0
 20
0.0
 30
0.0
  0
VERTEX
  5
53
330
51
100
AcDbEntity
  8
LAYER 01
100
AcDbVertex
100
AcDb2dVertex
 10
-435.8604374212919
 20
130.5389670402408
 30
0.0
  0
VERTEX
  5
54
330
51
100
AcDbEntity
  8
LAYER 01
100
AcDbVertex
100
AcDb2dVertex
 10
-433.9589100100532
 20
126.5675480506857
 30
0.0
  0
VERTEX
  5
55
330
51
100
AcDbEntity
  8
LAYER 01
100
AcDbVertex
100
AcDb2dVertex
 10
-432.7116591882048
 20
128.6786607296874
 30
0.0
  0
SEQEND
  5
52
330
51
100
AcDbEntity
  8
LAYER 01
  0
POLYLINE
  5
56
330
1F
100
AcDbEntity
  8
0
100
AcDb2dPolyline
 66
     1
 10
0.0
 20
0.0
 30
0.0
  0
VERTEX
  5
58
330
56
100
AcDbEntity
  8
0
100
AcDbVertex
100
AcDb2dVertex
 10
-437.9280893861805
 20
127.106618965934
 30
0.0
  0
VERTEX
  5
59
330
56
100
AcDbEntity
  8
0
100
AcDbVertex
100
AcDb2dVertex
 10
-437.9280893861805
 20
136.5335536575578
 30
0.0
  0
SEQEND
  5
57
330
56
100
AcDbEntity
  8
0
  0
POLYLINE
  5
5A
330
1F
100
AcDbEntity
  8
0
100
AcDb2dPolyline
 66
     1
 10
0.0
 20
0.0
 30
0.0
  0
VERTEX
  5
5C
330
5A
100
AcDbEntity
  8
0
100
AcDbVertex
100
AcDb2dVertex
 10
-439.538048642206
 20
126.1317242172071
 30
0.0
  0
VERTEX
  5
5D
330
5A
100
AcDbEntity
  8
0
100
AcDbVertex
100
AcDb2dVertex
 10
-439.538048642206
 20
135.6964410515575
 30
0.0
  0
SEQEND
  5
5B
330
5A
100
AcDbEntity
  8
0
  0
POLYLINE
  5
5E
330
1F
100
AcDbEntity
  8
0
100
AcDb2dPolyline
 66
     1
 10
0.0
 20
0.0
 30
0.0
  0
VERTEX
  5
60
330
5E
100
AcDbEntity
  8
0
100
AcDbVertex
100
AcDb2dVertex
 10
-441.2767282126412
 20
125.078884167627
 30
0.0
  0
VERTEX
  5
61
330
5E
100
AcDbEntity
  8
0
100
AcDbVertex
100
AcDb2dVertex
 10
-441.2767282126412
 20
134.792399175492
 30
0.0
  0
SEQEND
  5
5F
330
5E
100
AcDbEntity
  8
0
  0
POLYLINE
  5
62
330
1F
100
AcDbEntity
  8
0
100
AcDb2dPolyline
 66
     1
 10
0.0
 20
0.0
 30
0.0
  0
VERTEX
  5
64
330
62
100
AcDbEntity
  8
0
100
AcDbVertex
100
AcDb2dVertex
 10
-437.9280893861805
 20
136.5335536575578
 30
0.0
  0
VERTEX
  5
65
330
62
100
AcDbEntity
  8
0
100
AcDbVertex
100
AcDb2dVertex
 10
-439.6720898708998
 20
136.8683247906839
 30
0.0
  0
SEQEND
  5
63
330
62
100
AcDbEntity
  8
0
  0
POLYLINE
  5
66
330
1F
100
AcDbEntity
  8
0
100
AcDb2dPolyline
 66
     1
 10
0.0
 20
0.0
 30
0.0
  0
VERTEX
  5
68
330
66
100
AcDbEntity
  8
0
100
AcDbVertex
100
AcDb2dVertex
 10
-439.538048642206
 20
135.6964410515575
 30
0.0
  0
VERTEX
  5
69
330
66
100
AcDbEntity
  8
0
100
AcDbVertex
100
AcDb2dVertex
 10
-441.2820491269253
 20
136.0312121846836
 30
0.0
  0
SEQEND
  5
67
330
66
100
AcDbEntity
  8
0
  0
POLYLINE
  5
6A
330
1F
100
AcDbEntity
  8
0
100
AcDb2dPolyline
 66
     1
 10
0.0
 20
0.0
 30
0.0
  0
VERTEX
  5
6C
330
6A
100
AcDbEntity
  8
0
100
AcDbVertex
100
AcDb2dVertex
 10
-441.2767282126412
 20
134.792399175492
 30
0.0
  0
VERTEX
  5
6D
330
6A
100
AcDbEntity
  8
0
100
AcDbVertex
100
AcDb2dVertex
 10
-443.0207286973605
 20
135.1271703086181
 30
0.0
  0
SEQEND
  5
6B
330
6A
100
AcDbEntity
  8
0
  0
POLYLINE
  5
6E
330
1F
100
AcDbEntity
  8
0
100
AcDb2dPolyline
 66
     1
 10
0.0
 20
0.0
 30
0.0
  0
VERTEX
  5
70
330
6E
100
AcDbEntity
  8
0
100
AcDbVertex
100
AcDb2dVertex
 10
-443.0524849635187
 20
133.8690786903392
 30
0.0
  0
VERTEX
  5
71
330
6E
100
AcDbEntity
  8
0
100
AcDbVertex
100
AcDb2dVertex
 10
-444.796485448238
 20
134.2038498234653
 30
0.0
  0
SEQEND
  5
6F
330
6E
100
AcDbEntity
  8
0
  0
POLYLINE
  5
72
330
1F
100
AcDbEntity
  8
0
100
AcDb2dPolyline
 66
     1
 10
0.0
 20
0.0
 30
0.0
  0
VERTEX
  5
74
330
72
100
AcDbEntity
  8
0
100
AcDbVertex
100
AcDb2dVertex
 10
-443.0524849635187
 20
124.0035924017219
 30
0.0
  0
VERTEX
  5
75
330
72
100
AcDbEntity
  8
0
100
AcDbVertex
100
AcDb2dVertex
 10
-443.0524849635187
 20
133.8690786903392
 30
0.0
  0
SEQEND
  5
73
330
72
100
AcDbEntity
  8
0
  0
MTEXT
  5
76
330
1F
100
AcDbEntity
  8
LAYER 01
100
AcDbMText
 10
-489.5009570245079
 20
117.1264083971922
 30
0.0
 40
3.0
 41
30.79354838709677
 71
     1
 72
     1
  1
\fTahoma;CARBONIO 5X5
 73
     2
 44
0.9638554216867472
  0
POLYLINE
  5
77
330
1F
100
AcDbEntity
  8
LAYER 01
100
AcDb2dPolyline
 66
     1
 10
0.0
 20
0.0
 30
0.0
  0
VERTEX
  5
79
330
77
100
AcDbEntity
  8
LAYER 01
100
AcDbVertex
100
AcDb2dVertex
 10
-455.597962963379
 20
122.5534932909266
 30
0.0
  0
VERTEX
  5
7A
330
77
100
AcDbEntity
  8
LAYER 01
100
AcDbVertex
100
AcDb2dVertex
 10
-460.4547466778097
 20
117.8908061032743
 30
0.0
  0
SEQEND
  5
78
330
77
100
AcDbEntity
  8
LAYER 01
  0
POLYLINE
  5
7B
330
1F
100
AcDbEntity
  8
LAYER 01
100
AcDb2dPolyline
 66
     1
 10
0.0
 20
0.0
 30
0.0
  0
VERTEX
  5
7D
330
7B
100
AcDbEntity
  8
LAYER 01
100
AcDbVertex
100
AcDb2dVertex
 10
-452.9597100814661
 20
125.0863110224909
 30
0.0
  0
VERTEX
  5
7E
330
7B
100
AcDbEntity
  8
LAYER 01
100
AcDbVertex
100
AcDb2dVertex
 10
-457.2961021243142
 20
124.3223219276638
 30
0.0
  0
VERTEX
  5
7F
330
7B
100
AcDbEntity
  8
LAYER 01
100
AcDbVertex
100
AcDb2dVertex
 10
-455.597962963379
 20
122.5534932909266
 30
0.0
  0
SEQEND
  5
7C
330
7B
100
AcDbEntity
  8
LAYER 01
  0
POLYLINE
  5
80
330
1F
100
AcDbEntity
  8
LAYER 01
100
AcDb2dPolyline
 66
     1
 10
0.0
 20
0.0
 30
0.0
  0
VERTEX
  5
82
330
80
100
AcDbEntity
  8
LAYER 01
100
AcDbVertex
100
AcDb2dVertex
 10
-452.9597100814661
 20
125.0863110224909
 30
0.0
  0
VERTEX
  5
83
330
80
100
AcDbEntity
  8
LAYER 01
100
AcDbVertex
100
AcDb2dVertex
 10
-453.899823802444
 20
120.7846646541896
 30
0.0
  0
VERTEX
  5
84
330
80
100
AcDbEntity
  8
LAYER 01
100
AcDbVertex
100
AcDb2dVertex
 10
-455.597962963379
 20
122.5534932909266
 30
0.0
  0
SEQEND
  5
81
330
80
100
AcDbEntity
  8
LAYER 01
  0
POLYLINE
  5
85
330
1F
100
AcDbEntity
  8
LAYER 01
100
AcDb2dPolyline
 66
     1
 10
0.0
 20
0.0
 30
0.0
  0
VERTEX
  5
87
330
85
100
AcDbEntity
  8
LAYER 01
100
AcDbVertex
100
AcDb2dVertex
 10
-433.2131040585224
 20
110.5783437580917
 30
0.0
  0
VERTEX
  5
88
330
85
100
AcDbEntity
  8
LAYER 01
100
AcDbVertex
100
AcDb2dVertex
 10
-425.2221733130625
 20
99.86432937427747
 30
0.0
  0
SEQEND
  5
86
330
85
100
AcDbEntity
  8
LAYER 01
  0
POLYLINE
  5
89
330
1F
100
AcDbEntity
  8
LAYER 01
100
AcDb2dPolyline
 66
     1
 10
0.0
 20
0.0
 30
0.0
  0
VERTEX
  5
8B
330
89
100
AcDbEntity
  8
LAYER 01
100
AcDbVertex
100
AcDb2dVertex
 10
-437.553856562229
 20
116.3983021888056
 30
0.0
  0
VERTEX
  5
8C
330
89
100
AcDbEntity
  8
LAYER 01
100
AcDbVertex
100
AcDb2dVertex
 10
-437.115121642751
 20
107.6680665112884
 30
0.0
  0
VERTEX
  5
8D
330
89
100
AcDbEntity
  8
LAYER 01
100
AcDbVertex
100
AcDb2dVertex
 10
-433.2131040585224
 20
110.5783437580917
 30
0.0
  0
SEQEND
  5
8A
330
89
100
AcDbEntity
  8
LAYER 01
  0
POLYLINE
  5
8E
330
1F
100
AcDbEntity
  8
LAYER 01
100
AcDb2dPolyline
 66
     1
 10
0.0
 20
0.0
 30
0.0
  0
VERTEX
  5
90
330
8E
100
AcDbEntity
  8
LAYER 01
100
AcDbVertex
100
AcDb2dVertex
 10
-437.553856562229
 20
116.3983021888056
 30
0.0
  0
VERTEX
  5
91
330
8E
100
AcDbEntity
  8
LAYER 01
100
AcDbVertex
100
AcDb2dVertex
 10
-429.3110864742938
 20
113.488621004895
 30
0.0
  0
VERTEX
  5
92
330
8E
100
AcDbEntity
  8
LAYER 01
100
AcDbVertex
100
AcDb2dVertex
 10
-433.2131040585224
 20
110.5783437580917
 30
0.0
  0
SEQEND
  5
8F
330
8E
100
AcDbEntity
  8
LAYER 01
  0
POLYLINE
  5
93
330
1F
100
AcDbEntity
  8
LAYER 01
100
AcDb2dPolyline
 66
     1
 10
0.0
 20
0.0
 30
0.0
  0
VERTEX
  5
95
330
93
100
AcDbEntity
  8
LAYER 01
100
AcDbVertex
100
AcDb2dVertex
 10
-415.8306396831478
 20
67.23079851847245
 30
0.0
  0
VERTEX
  5
96
330
93
100
AcDbEntity
  8
LAYER 01
100
AcDbVertex
100
AcDb2dVertex
 10
-415.8306396831478
 20
53.8649809828589
 30
0.0
  0
SEQEND
  5
94
330
93
100
AcDbEntity
  8
LAYER 01
  0
POLYLINE
  5
97
330
1F
100
AcDbEntity
  8
LAYER 01
100
AcDb2dPolyline
 66
     1
 10
0.0
 20
0.0
 30
0.0
  0
VERTEX
  5
99
330
97
100
AcDbEntity
  8
LAYER 01
100
AcDbVertex
100
AcDb2dVertex
 10
-415.8306396831478
 20
74.49124261189215
 30
0.0
  0
VERTEX
  5
9A
330
97
100
AcDbEntity
  8
LAYER 01
100
AcDbVertex
100
AcDb2dVertex
 10
-420.6984374275996
 20
67.23079851847244
 30
0.0
  0
VERTEX
  5
9B
330
97
100
AcDbEntity
  8
LAYER 01
100
AcDbVertex
100
AcDb2dVertex
 10
-415.8306396831478
 20
67.23079851847245
 30
0.0
  0
SEQEND
  5
98
330
97
100
AcDbEntity
  8
LAYER 01
  0
POLYLINE
  5
9C
330
1F
100
AcDbEntity
  8
LAYER 01
100
AcDb2dPolyline
 66
     1
 10
0.0
 20
0.0
 30
0.0
  0
VERTEX
  5
9E
330
9C
100
AcDbEntity
  8
LAYER 01
100
AcDbVertex
100
AcDb2dVertex
 10
-415.8306396831478
 20
74.49124261189215
 30
0.0
  0
VERTEX
  5
9F
330
9C
100
AcDbEntity
  8
LAYER 01
100
AcDbVertex
100
AcDb2dVertex
 10
-410.962841938696
 20
67.23079851847244
 30
0.0
  0
VERTEX
  5
A0
330
9C
100
AcDbEntity
  8
LAYER 01
100
AcDbVertex
100
AcDb2dVertex
 10
-415.8306396831478
 20
67.23079851847245
 30
0.0
  0
SEQEND
  5
9D
330
9C
100
AcDbEntity
  8
LAYER 01
  0
POLYLINE
  5
A1
330
1F
100
AcDbEntity
  8
DEFAULT
100
AcDb2dPolyline
 66
     1
 10
0.0
 20
0.0
 30
0.0
  0
VERTEX
  5
A3
330
A1
100
AcDbEntity
  8
DEFAULT
100
AcDbVertex
100
AcDb2dVertex
 10
-416.5248877917857
 20
82.00186672562927
 30
0.0
  0
VERTEX
  5
A4
330
A1
100
AcDbEntity
  8
DEFAULT
100
AcDbVertex
100
AcDb2dVertex
 10
-411.3462331391672
 20
86.89990462367055
 30
0.0
  0
SEQEND
  5
A2
330
A1
100
AcDbEntity
  8
DEFAULT
  0
POLYLINE
  5
A5
330
1F
100
AcDbEntity
  8
DEFAULT
100
AcDb2dPolyline
 66
     1
 10
0.0
 20
0.0
 30
0.0
  0
VERTEX
  5
A7
330
A5
100
AcDbEntity
  8
DEFAULT
100
AcDbVertex
100
AcDb2dVertex
 10
-415.0735353282963
 20
82.00186672562927
 30
0.0
  0
VERTEX
  5
A8
330
A5
100
AcDbEntity
  8
DEFAULT
100
AcDbVertex
100
AcDb2dVertex
 10
-411.3462331391672
 20
85.5271968749503
 30
0.0
  0
SEQEND
  5
A6
330
A5
100
AcDbEntity
  8
DEFAULT
  0
POLYLINE
  5
A9
330
1F
100
AcDbEntity
  8
DEFAULT
100
AcDb2dPolyline
 66
     1
 10
0.0
 20
0.0
 30
0.0
  0
VERTEX
  5
AB
330
A9
100
AcDbEntity
  8
DEFAULT
100
AcDbVertex
100
AcDb2dVertex
 10
-419.514817866484
 20
88.78290680735091
 30
0.0
  0
VERTEX
  5
AC
330
A9
100
AcDbEntity
  8
DEFAULT
100
AcDbVertex
100
AcDb2dVertex
 10
-418.0477784755682
 20
90.17045145294603
 30
0.0
  0
SEQEND
  5
AA
330
A9
100
AcDbEntity
  8
DEFAULT
  0
POLYLINE
  5
AD
330
1F
100
AcDbEntity
  8
DEFAULT
100
AcDb2dPolyline
 66
     1
 10
0.0
 20
0.0
 30
0.0
  0
VERTEX
  5
AF
330
AD
100
AcDbEntity
  8
DEFAULT
100
AcDbVertex
100
AcDb2dVertex
 10
-419.4805567708597
 20
82.63812652116367
 30
0.0
  0
VERTEX
  5
B0
330
AD
100
AcDbEntity
  8
DEFAULT
100
AcDbVertex
100
AcDb2dVertex
 10
-411.5166923898581
 20
90.17045145294603
 30
0.0
  0
SEQEND
  5
AE
330
AD
100
AcDbEntity
  8
DEFAULT
  0
POLYLINE
  5
B1
330
1F
100
AcDbEntity
  8
DEFAULT
100
AcDb2dPolyline
 66
     1
 10
0.0
 20
0.0
 30
0.0
  0
VERTEX
  5
B3
330
B1
100
AcDbEntity
  8
DEFAULT
100
AcDbVertex
100
AcDb2dVertex
 10
-412.8965066330587
 20
82.00186672562927
 30
0.0
  0
VERTEX
  5
B4
330
B1
100
AcDbEntity
  8
DEFAULT
100
AcDbVertex
100
AcDb2dVertex
 10
-411.3462331391672
 20
83.46813525187041
 30
0.0
  0
SEQEND
  5
B2
330
B1
100
AcDbEntity
  8
DEFAULT
  0
POLYLINE
  5
B5
330
1F
100
AcDbEntity
  8
DEFAULT
100
AcDb2dPolyline
 66
     1
 10
0.0
 20
0.0
 30
0.0
  0
VERTEX
  5
B7
330
B5
100
AcDbEntity
  8
DEFAULT
100
AcDbVertex
100
AcDb2dVertex
 10
-419.514817866484
 20
83.29207581247056
 30
0.0
  0
VERTEX
  5
B8
330
B5
100
AcDbEntity
  8
DEFAULT
100
AcDbVertex
100
AcDb2dVertex
 10
-412.2423686216036
 20
90.17045145294603
 30
0.0
  0
SEQEND
  5
B6
330
B5
100
AcDbEntity
  8
DEFAULT
  0
POLYLINE
  5
B9
330
1F
100
AcDbEntity
  8
DEFAULT
100
AcDb2dPolyline
 66
     1
 10
0.0
 20
0.0
 30
0.0
  0
VERTEX
  5
BB
330
B9
100
AcDbEntity
  8
DEFAULT
100
AcDbVertex
100
AcDb2dVertex
 10
-419.514817866484
 20
90.17045145294603
 30
0.0
  0
VERTEX
  5
BC
330
B9
100
AcDbEntity
  8
DEFAULT
100
AcDbVertex
100
AcDb2dVertex
 10
-411.3462331391672
 20
90.17045145294603
 30
0.0
  0
VERTEX
  5
BD
330
B9
100
AcDbEntity
  8
DEFAULT
100
AcDbVertex
100
AcDb2dVertex
 10
-411.3462331391672
 20
82.00186672562927
 30
0.0
  0
VERTEX
  5
BE
330
B9
100
AcDbEntity
  8
DEFAULT
100
AcDbVertex
100
AcDb2dVertex
 10
-419.514817866484
 20
82.00186672562927
 30
0.0
  0
VERTEX
  5
BF
330
B9
100
AcDbEntity
  8
DEFAULT
100
AcDbVertex
100
AcDb2dVertex
 10
-419.514817866484
 20
90.17045145294603
 30
0.0
  0
SEQEND
  5
BA
330
B9
100
AcDbEntity
  8
DEFAULT
  0
POLYLINE
  5
C0
330
1F
100
AcDbEntity
  8
DEFAULT
100
AcDb2dPolyline
 66
     1
 10
0.0
 20
0.0
 30
0.0
  0
VERTEX
  5
C2
330
C0
100
AcDbEntity
  8
DEFAULT
100
AcDbVertex
100
AcDb2dVertex
 10
-419.5148178664841
 20
87.41019905862976
 30
0.0
  0
VERTEX
  5
C3
330
C0
100
AcDbEntity
  8
DEFAULT
100
AcDbVertex
100
AcDb2dVertex
 10
-416.596426012077
 20
90.17045145294603
 30
0.0
  0
SEQEND
  5
C1
330
C0
100
AcDbEntity
  8
DEFAULT
  0
POLYLINE
  5
C4
330
1F
100
AcDbEntity
  8
DEFAULT
100
AcDb2dPolyline
 66
     1
 10
0.0
 20
0.0
 30
0.0
  0
VERTEX
  5
C6
330
C4
100
AcDbEntity
  8
DEFAULT
100
AcDbVertex
100
AcDb2dVertex
 10
-412.1708304013133
 20
82.00186672562927
 30
0.0
  0
VERTEX
  5
C7
330
C4
100
AcDbEntity
  8
DEFAULT
100
AcDbVertex
100
AcDb2dVertex
 10
-411.3462331391672
 20
82.78178137751053
 30
0.0
  0
SEQEND
  5
C5
330
C4
100
AcDbEntity
  8
DEFAULT
  0
POLYLINE
  5
C8
330
1F
100
AcDbEntity
  8
DEFAULT
100
AcDb2dPolyline
 66
     1
 10
0.0
 20
0.0
 30
0.0
  0
VERTEX
  5
CA
330
C8
100
AcDbEntity
  8
DEFAULT
100
AcDbVertex
100
AcDb2dVertex
 10
-419.514817866484
 20
83.97842968682895
 30
0.0
  0
VERTEX
  5
CB
330
C8
100
AcDbEntity
  8
DEFAULT
100
AcDbVertex
100
AcDb2dVertex
 10
-412.9680448533497
 20
90.17045145294603
 30
0.0
  0
SEQEND
  5
C9
330
C8
100
AcDbEntity
  8
DEFAULT
  0
POLYLINE
  5
CC
330
1F
100
AcDbEntity
  8
DEFAULT
100
AcDb2dPolyline
 66
     1
 10
0.0
 20
0.0
 30
0.0
  0
VERTEX
  5
CE
330
CC
100
AcDbEntity
  8
DEFAULT
100
AcDbVertex
100
AcDb2dVertex
 10
-419.514817866484
 20
86.03749130990997
 30
0.0
  0
VERTEX
  5
CF
330
CC
100
AcDbEntity
  8
DEFAULT
100
AcDbVertex
100
AcDb2dVertex
 10
-415.1450735485859
 20
90.17045145294603
 30
0.0
  0
SEQEND
  5
CD
330
CC
100
AcDbEntity
  8
DEFAULT
  0
POLYLINE
  5
D0
330
1F
100
AcDbEntity
  8
DEFAULT
100
AcDb2dPolyline
 66
     1
 10
0.0
 20
0.0
 30
0.0
  0
VERTEX
  5
D2
330
D0
100
AcDbEntity
  8
DEFAULT
100
AcDbVertex
100
AcDb2dVertex
 10
-419.514817866484
 20
88.09655293299053
 30
0.0
  0
VERTEX
  5
D3
330
D0
100
AcDbEntity
  8
DEFAULT
100
AcDbVertex
100
AcDb2dVertex
 10
-417.3221022438224
 20
90.17045145294603
 30
0.0
  0
SEQEND
  5
D1
330
D0
100
AcDbEntity
  8
DEFAULT
  0
POLYLINE
  5
D4
330
1F
100
AcDbEntity
  8
DEFAULT
100
AcDb2dPolyline
 66
     1
 10
0.0
 20
0.0
 30
0.0
  0
VERTEX
  5
D6
330
D4
100
AcDbEntity
  8
DEFAULT
100
AcDbVertex
100
AcDb2dVertex
 10
-418.7019164870221
 20
82.00186672562927
 30
0.0
  0
VERTEX
  5
D7
330
D4
100
AcDbEntity
  8
DEFAULT
100
AcDbVertex
100
AcDb2dVertex
 10
-411.3462331391672
 20
88.95896624675132
 30
0.0
  0
SEQEND
  5
D5
330
D4
100
AcDbEntity
  8
DEFAULT
  0
POLYLINE
  5
D8
330
1F
100
AcDbEntity
  8
LAYER 01
100
AcDb2dPolyline
 66
     1
 10
0.0
 20
0.0
 30
0.0
  0
VERTEX
  5
DA
330
D8
100
AcDbEntity
  8
LAYER 01
100
AcDbVertex
100
AcDb2dVertex
 10
-407.1709424737713
 20
75.73727414636063
 30
0.0
  0
VERTEX
  5
DB
330
D8
100
AcDbEntity
  8
LAYER 01
100
AcDbVertex
100
AcDb2dVertex
 10
-411.2552348374298
 20
75.73727414636063
 30
0.0
  0
VERTEX
  5
DC
330
D8
100
AcDbEntity
  8
LAYER 01
100
AcDbVertex
100
AcDb2dVertex
 10
-411.2552348374298
 20
96.97559443738423
 30
0.0
  0
VERTEX
  5
DD
330
D8
100
AcDbEntity
  8
LAYER 01
100
AcDbVertex
100
AcDb2dVertex
 10
-407.1709424737713
 20
96.97559443738423
 30
0.0
  0
VERTEX
  5
DE
330
D8
100
AcDbEntity
  8
LAYER 01
100
AcDbVertex
100
AcDb2dVertex
 10
-407.1709424737713
 20
75.73727414636063
 30
0.0
  0
SEQEND
  5
D9
330
D8
100
AcDbEntity
  8
LAYER 01
  0
POLYLINE
  5
DF
330
1F
100
AcDbEntity
  8
DEFAULT
100
AcDb2dPolyline
 66
     1
 10
0.0
 20
0.0
 30
0.0
  0
VERTEX
  5
E1
330
DF
100
AcDbEntity
  8
DEFAULT
100
AcDbVertex
100
AcDb2dVertex
 10
-415.7992115600416
 20
82.00186672562927
 30
0.0
  0
VERTEX
  5
E2
330
DF
100
AcDbEntity
  8
DEFAULT
100
AcDbVertex
100
AcDb2dVertex
 10
-411.3462331391672
 20
86.21355074931031
 30
0.0
  0
SEQEND
  5
E0
330
DF
100
AcDbEntity
  8
DEFAULT
  0
POLYLINE
  5
E3
330
1F
100
AcDbEntity
  8
DEFAULT
100
AcDb2dPolyline
 66
     1
 10
0.0
 20
0.0
 30
0.0
  0
VERTEX
  5
E5
330
E3
100
AcDbEntity
  8
DEFAULT
100
AcDbVertex
100
AcDb2dVertex
 10
-417.2505640235315
 20
82.00186672562927
 30
0.0
  0
VERTEX
  5
E6
330
E3
100
AcDbEntity
  8
DEFAULT
100
AcDbVertex
100
AcDb2dVertex
 10
-411.3462331391672
 20
87.58625849803072
 30
0.0
  0
SEQEND
  5
E4
330
E3
100
AcDbEntity
  8
DEFAULT
  0
POLYLINE
  5
E7
330
1F
100
AcDbEntity
  8
DEFAULT
100
AcDb2dPolyline
 66
     1
 10
0.0
 20
0.0
 30
0.0
  0
VERTEX
  5
E9
330
E7
100
AcDbEntity
  8
DEFAULT
100
AcDbVertex
100
AcDb2dVertex
 10
-419.1773962127649
 20
82.23850578549313
 30
0.0
  0
VERTEX
  5
EA
330
E7
100
AcDbEntity
  8
DEFAULT
100
AcDbVertex
100
AcDb2dVertex
 10
-411.3462331391672
 20
89.6453201211118
 30
0.0
  0
SEQEND
  5
E8
330
E7
100
AcDbEntity
  8
DEFAULT
  0
POLYLINE
  5
EB
330
1F
100
AcDbEntity
  8
DEFAULT
100
AcDb2dPolyline
 66
     1
 10
0.0
 20
0.0
 30
0.0
  0
VERTEX
  5
ED
330
EB
100
AcDbEntity
  8
DEFAULT
100
AcDbVertex
100
AcDb2dVertex
 10
-413.6221828648041
 20
82.00186672562927
 30
0.0
  0
VERTEX
  5
EE
330
EB
100
AcDbEntity
  8
DEFAULT
100
AcDbVertex
100
AcDb2dVertex
 10
-411.3462331391672
 20
84.15448912623037
 30
0.0
  0
SEQEND
  5
EC
330
EB
100
AcDbEntity
  8
DEFAULT
  0
POLYLINE
  5
EF
330
1F
100
AcDbEntity
  8
LAYER 01
100
AcDb2dPolyline
 66
     1
 10
0.0
 20
0.0
 30
0.0
  0
VERTEX
  5
F1
330
EF
100
AcDbEntity
  8
LAYER 01
100
AcDbVertex
100
AcDb2dVertex
 10
-423.6724902875707
 20
75.73727414636063
 30
0.0
  0
VERTEX
  5
F2
330
EF
100
AcDbEntity
  8
LAYER 01
100
AcDbVertex
100
AcDb2dVertex
 10
-419.5881979239123
 20
75.73727414636063
 30
0.0
  0
VERTEX
  5
F3
330
EF
100
AcDbEntity
  8
LAYER 01
100
AcDbVertex
100
AcDb2dVertex
 10
-419.5881979239123
 20
96.97559443738423
 30
0.0
  0
VERTEX
  5
F4
330
EF
100
AcDbEntity
  8
LAYER 01
100
AcDbVertex
100
AcDb2dVertex
 10
-423.6724902875707
 20
96.97559443738423
 30
0.0
  0
VERTEX
  5
F5
330
EF
100
AcDbEntity
  8
LAYER 01
100
AcDbVertex
100
AcDb2dVertex
 10
-423.6724902875707
 20
75.73727414636063
 30
0.0
  0
SEQEND
  5
F0
330
EF
100
AcDbEntity
  8
LAYER 01
  0
POLYLINE
  5
F6
330
1F
100
AcDbEntity
  8
DEFAULT
100
AcDb2dPolyline
 66
     1
 10
0.0
 20
0.0
 30
0.0
  0
VERTEX
  5
F8
330
F6
100
AcDbEntity
  8
DEFAULT
100
AcDbVertex
100
AcDb2dVertex
 10
-419.514817866484
 20
89.46926068171155
 30
0.0
  0
VERTEX
  5
F9
330
F6
100
AcDbEntity
  8
DEFAULT
100
AcDbVertex
100
AcDb2dVertex
 10
-418.7734547073138
 20
90.17045145294603
 30
0.0
  0
SEQEND
  5
F7
330
F6
100
AcDbEntity
  8
DEFAULT
  0
POLYLINE
  5
FA
330
1F
100
AcDbEntity
  8
DEFAULT
100
AcDb2dPolyline
 66
     1
 10
0.0
 20
0.0
 30
0.0
  0
VERTEX
  5
FC
330
FA
100
AcDbEntity
  8
DEFAULT
100
AcDbVertex
100
AcDb2dVertex
 10
-414.3478590965502
 20
82.00186672562927
 30
0.0
  0
VERTEX
  5
FD
330
FA
100
AcDbEntity
  8
DEFAULT
100
AcDbVertex
100
AcDb2dVertex
 10
-411.3462331391672
 20
84.84084300059024
 30
0.0
  0
SEQEND
  5
FB
330
FA
100
AcDbEntity
  8
DEFAULT
  0
POLYLINE
  5
FE
330
1F
100
AcDbEntity
  8
DEFAULT
100
AcDb2dPolyline
 66
     1
 10
0.0
 20
0.0
 30
0.0
  0
VERTEX
  5
100
330
FE
100
AcDbEntity
  8
DEFAULT
100
AcDbVertex
100
AcDb2dVertex
 10
-419.514817866484
 20
84.66478356118856
 30
0.0
  0
VERTEX
  5
101
330
FE
100
AcDbEntity
  8
DEFAULT
100
AcDbVertex
100
AcDb2dVertex
 10
-413.6937210850953
 20
90.17045145294603
 30
0.0
  0
SEQEND
  5
FF
330
FE
100
AcDbEntity
  8
DEFAULT
  0
POLYLINE
  5
102
330
1F
100
AcDbEntity
  8
DEFAULT
100
AcDb2dPolyline
 66
     1
 10
0.0
 20
0.0
 30
0.0
  0
VERTEX
  5
104
330
102
100
AcDbEntity
  8
DEFAULT
100
AcDbVertex
100
AcDb2dVertex
 10
-419.514817866484
 20
85.35113743554899
 30
0.0
  0
VERTEX
  5
105
330
102
100
AcDbEntity
  8
DEFAULT
100
AcDbVertex
100
AcDb2dVertex
 10
-414.419397316841
 20
90.17045145294603
 30
0.0
  0
SEQEND
  5
103
330
102
100
AcDbEntity
  8
DEFAULT
  0
POLYLINE
  5
106
330
1F
100
AcDbEntity
  8
DEFAULT
100
AcDb2dPolyline
 66
     1
 10
0.0
 20
0.0
 30
0.0
  0
VERTEX
  5
108
330
106
100
AcDbEntity
  8
DEFAULT
100
AcDbVertex
100
AcDb2dVertex
 10
-417.9762402552781
 20
82.00186672562927
 30
0.0
  0
VERTEX
  5
109
330
106
100
AcDbEntity
  8
DEFAULT
100
AcDbVertex
100
AcDb2dVertex
 10
-411.3462331391672
 20
88.27261237239026
 30
0.0
  0
SEQEND
  5
107
330
106
100
AcDbEntity
  8
DEFAULT
  0
POLYLINE
  5
10A
330
1F
100
AcDbEntity
  8
DEFAULT
100
AcDb2dPolyline
 66
     1
 10
0.0
 20
0.0
 30
0.0
  0
VERTEX
  5
10C
330
10A
100
AcDbEntity
  8
DEFAULT
100
AcDbVertex
100
AcDb2dVertex
 10
-419.5148178664841
 20
86.72384518426975
 30
0.0
  0
VERTEX
  5
10D
330
10A
100
AcDbEntity
  8
DEFAULT
100
AcDbVertex
100
AcDb2dVertex
 10
-415.8707497803315
 20
90.17045145294603
 30
0.0
  0
SEQEND
  5
10B
330
10A
100
AcDbEntity
  8
DEFAULT
  0
SPLINE
  5
10E
330
1F
100
AcDbEntity
  8
MAKE2D VISIBLE LINES
100
AcDbSpline
210
0.0
220
0.0
230
1.0
 70
    24
 71
     2
 72
     6
 73
     3
 74
     0
 42
0.0000000001
 43
0.0000000001
 40
0.0
 40
0.0
 40
0.0
 40
6.467173920953311
 40
6.467173920953311
 40
6.467173920953311
 10
-451.6949995142688
 20
134.3842468213634
 30
0.0
 10
-450.8255594765916
 20
134.2173527011217
 30
0.0
 10
-449.9561194389143
 20
134.0504585808799
 30
0.0
  0
SPLINE
  5
10F
330
1F
100
AcDbEntity
  8
DEFAULT
100
AcDbSpline
210
0.0
220
0.0
230
1.0
 70
    24
 71
     2
 72
     6
 73
     3
 74
     0
 42
0.0000000001
 43
0.0000000001
 40
0.0
 40
0.0
 40
0.0
 40
12.95845696082425
 40
12.95845696082425
 40
12.95845696082425
 10
-448.5739376298266
 20
125.1276777556047
 30
0.0
 10
-450.3152791289294
 20
125.466125179452
 30
0.0
 10
-452.0566206280322
 20
125.8045726032993
 30
0.0
  0
SPLINE
  5
110
330
1F
100
AcDbEntity
  8
DEFAULT
100
AcDbSpline
210
0.0
220
0.0
230
1.0
 70
    24
 71
     2
 72
     6
 73
     3
 74
     0
 42
0.0000000001
 43
0.0000000001
 40
0.0
 40
0.0
 40
0.0
 40
14.00317013195098
 40
14.00317013195098
 40
14.00317013195098
 10
-452.0566206280322
 20
125.8045726032993
 30
0.0
 10
-452.070900383196
 20
127.7214606967934
 30
0.0
 10
-452.0851801383599
 20
129.6383487902875
 30
0.0
  0
SPLINE
  5
111
330
1F
100
AcDbEntity
  8
MAKE2D VISIBLE LINES
100
AcDbSpline
210
0.0
220
0.0
230
1.0
 70
    24
 71
     2
 72
     6
 73
     3
 74
     0
 42
0.0000000001
 43
0.0000000001
 40
0.0
 40
0.0
 40
0.0
 40
15.01457354638035
 40
15.01457354638035
 40
15.01457354638035
 10
-449.8856716806959
 20
124.0975829742711
 30
0.0
 10
-448.1212490319219
 20
125.1518430228895
 30
0.0
 10
-446.356826383148
 20
126.206103071508
 30
0.0
  0
SPLINE
  5
112
330
1F
100
AcDbEntity
  8
MAKE2D VISIBLE LINES
100
AcDbSpline
210
0.0
220
0.0
230
1.0
 70
    24
 71
     2
 72
     6
 73
     3
 74
     0
 42
0.0000000001
 43
0.0000000001
 40
0.0
 40
0.0
 40
0.0
 40
16.47507932397819
 40
16.47507932397819
 40
16.47507932397819
 10
-451.6617281591276
 20
129.8737109632707
 30
0.0
 10
-451.6783638366982
 20
132.1289788923171
 30
0.0
 10
-451.6949995142688
 20
134.3842468213634
 30
0.0
  0
SPLINE
  5
113
330
1F
100
AcDbEntity
  8
MAKE2D VISIBLE LINES
100
AcDbSpline
210
0.0
220
0.0
230
1.0
 70
    24
 71
     2
 72
     6
 73
     3
 74
     0
 42
0.0000000001
 43
0.0000000001
 40
0.0
 40
0.0
 40
0.0
 40
301.6565367638838
 40
301.6565367638838
 40
301.6565367638838
 10
-451.6949995142688
 20
134.3842468213634
 30
0.0
 10
-414.9965333840037
 20
153.3178588243607
 30
0.0
 10
-378.2980672537386
 20
172.251470827358
 30
0.0
  0
SPLINE
  5
114
330
1F
100
AcDbEntity
  8
MAKE2D VISIBLE LINES
100
AcDbSpline
210
0.0
220
0.0
230
1.0
 70
    24
 71
     2
 72
     6
 73
     3
 74
     0
 42
0.0000000001
 43
0.0000000001
 40
-6.193059735252592
 40
-6.193059735252592
 40
-6.193059735252592
 40
0.0
 40
0.0
 40
0.0
 10
-378.2980672537386
 20
172.251470827358
 30
0.0
 10
-377.4633697612011
 20
172.1030589895312
 30
0.0
 10
-376.6286722686636
 20
171.9546471517044
 30
0.0
  0
SPLINE
  5
115
330
1F
100
AcDbEntity
  8
DEFAULT
100
AcDbSpline
210
0.0
220
0.0
230
1.0
 70
    24
 71
     2
 72
     6
 73
     3
 74
     0
 42
0.0000000001
 43
0.0000000001
 40
0.0
 40
0.0
 40
0.0
 40
14.0150440813611
 40
14.0150440813611
 40
14.0150440813611
 10
-448.6002261286935
 20
128.9647211941819
 30
0.0
 10
-448.58708187926
 20
127.0461994748933
 30
0.0
 10
-448.5739376298266
 20
125.1276777556047
 30
0.0
  0
SPLINE
  5
116
330
1F
100
AcDbEntity
  8
DEFAULT
100
AcDbSpline
210
0.0
220
0.0
230
1.0
 70
    24
 71
     2
 72
     6
 73
     3
 74
     0
 42
0.0000000001
 43
0.0000000001
 40
0.0
 40
0.0
 40
0.0
 40
9.280740550453599
 40
9.280740550453599
 40
9.280740550453599
 10
-448.5739376298266
 20
125.1276777556047
 30
0.0
 10
-447.4659149322709
 20
125.7492762142682
 30
0.0
 10
-446.3578922347153
 20
126.3708746729317
 30
0.0
  0
SPLINE
  5
117
330
1F
100
AcDbEntity
  8
DEFAULT
100
AcDbSpline
210
0.0
220
0.0
230
1.0
 70
    24
 71
     2
 72
     6
 73
     3
 74
     0
 42
0.0000000001
 43
0.0000000001
 40
-23.75915573803664
 40
-23.75915573803664
 40
-23.75915573803664
 40
0.0
 40
0.0
 40
0.0
 10
-446.3994708002069
 20
132.7985675881893
 30
0.0
 10
-449.2423254692834
 20
131.2184581892384
 30
0.0
 10
-452.0851801383599
 20
129.6383487902875
 30
0.0
  0
SPLINE
  5
118
330
1F
100
AcDbEntity
  8
DEFAULT
100
AcDbSpline
210
0.0
220
0.0
230
1.0
 70
    24
 71
     2
 72
     6
 73
     3
 74
     0
 42
0.0000000001
 43
0.0000000001
 40
0.0
 40
0.0
 40
0.0
 40
12.96432942601307
 40
12.96432942601307
 40
12.96432942601307
 10
-452.0851801383599
 20
129.6383487902875
 30
0.0
 10
-450.3427031335267
 20
129.3015349922347
 30
0.0
 10
-448.6002261286935
 20
128.9647211941819
 30
0.0
  0
SPLINE
  5
119
330
1F
100
AcDbEntity
  8
DEFAULT
100
AcDbSpline
210
0.0
220
0.0
230
1.0
 70
    24
 71
     2
 72
     6
 73
     3
 74
     0
 42
0.0000000001
 43
0.0000000001
 40
0.0
 40
0.0
 40
0.0
 40
9.274841382182155
 40
9.274841382182155
 40
9.274841382182155
 10
-448.6002261286935
 20
128.9647211941819
 30
0.0
 10
-447.4914500374849
 20
129.5833189767588
 30
0.0
 10
-446.3826739462763
 20
130.2019167593356
 30
0.0
  0
SPLINE
  5
11A
330
1F
100
AcDbEntity
  8
MAKE2D VISIBLE LINES
100
AcDbSpline
210
0.0
220
0.0
230
1.0
 70
    24
 71
     2
 72
     6
 73
     3
 74
     0
 42
0.0000000001
 43
0.0000000001
 40
-6.486217544707468
 40
-6.486217544707468
 40
-6.486217544707468
 40
0.0
 40
0.0
 40
0.0
 10
-446.4031571535952
 20
133.368446608617
 30
0.0
 10
-445.5311569112355
 20
133.201061042054
 30
0.0
 10
-444.6591566688759
 20
133.0336754754909
 30
0.0
  0
SPLINE
  5
11B
330
1F
100
AcDbEntity
  8
MAKE2D VISIBLE LINES
100
AcDbSpline
210
0.0
220
0.0
230
1.0
 70
    24
 71
     2
 72
     6
 73
     3
 74
     0
 42
0.0000000001
 43
0.0000000001
 40
0.0
 40
0.0
 40
0.0
 40
300.9942023700991
 40
300.9942023700991
 40
300.9942023700991
 10
-444.6591566688759
 20
133.0336754754909
 30
0.0
 10
-408.1015595267128
 20
152.0421226136709
 30
0.0
 10
-371.5439623845497
 20
171.0505697518508
 30
0.0
  0
SPLINE
  5
11C
330
1F
100
AcDbEntity
  8
MAKE2D VISIBLE LINES
100
AcDbSpline
210
0.0
220
0.0
230
1.0
 70
    24
 71
     2
 72
     6
 73
     3
 74
     0
 42
0.0000000001
 43
0.0000000001
 40
-6.210215434598269
 40
-6.210215434598269
 40
-6.210215434598269
 40
0.0
 40
0.0
 40
0.0
 10
-371.5439623845497
 20
171.0505697518508
 30
0.0
 10
-372.3809721136615
 20
171.1993927126085
 30
0.0
 10
-373.2179818427733
 20
171.3482156733661
 30
0.0
  0
SPLINE
  5
11D
330
1F
100
AcDbEntity
  8
MAKE2D VISIBLE LINES
100
AcDbSpline
210
0.0
220
0.0
230
1.0
 70
    24
 71
     2
 72
     6
 73
     3
 74
     0
 42
0.0000000001
 43
0.0000000001
 40
-301.158521610493
 40
-301.158521610493
 40
-301.158521610493
 40
0.0
 40
0.0
 40
0.0
 10
-373.2179818427733
 20
171.3482156733661
 30
0.0
 10
-409.8105694981842
 20
152.3583311409916
 30
0.0
 10
-446.4031571535952
 20
133.368446608617
 30
0.0
  0
SPLINE
  5
11E
330
1F
100
AcDbEntity
  8
MAKE2D VISIBLE LINES
100
AcDbSpline
210
0.0
220
0.0
230
1.0
 70
    24
 71
     2
 72
     6
 73
     3
 74
     0
 42
0.0000000001
 43
0.0000000001
 40
0.0
 40
0.0
 40
0.0
 40
36.38497562377552
 40
36.38497562377552
 40
36.38497562377552
 10
-446.4031571535952
 20
133.368446608617
 30
0.0
 10
-446.370938319413
 20
128.3876885433932
 30
0.0
 10
-446.3387194852307
 20
123.4069304781693
 30
0.0
  0
SPLINE
  5
11F
330
1F
100
AcDbEntity
  8
MAKE2D VISIBLE LINES
100
AcDbSpline
210
0.0
220
0.0
230
1.0
 70
    24
 71
     2
 72
     6
 73
     3
 74
     0
 42
0.0000000001
 43
0.0000000001
 40
0.0
 40
0.0
 40
0.0
 40
6.478562513793363
 40
6.478562513793363
 40
6.478562513793363
 10
-446.3387194852307
 20
123.4069304781693
 30
0.0
 10
-445.4681964835407
 20
123.2374247022527
 30
0.0
 10
-444.5976734818506
 20
123.0679189263362
 30
0.0
  0
SPLINE
  5
120
330
1F
100
AcDbEntity
  8
MAKE2D VISIBLE LINES
100
AcDbSpline
210
0.0
220
0.0
230
1.0
 70
    24
 71
     2
 72
     6
 73
     3
 74
     0
 42
0.0000000001
 43
0.0000000001
 40
0.0
 40
0.0
 40
0.0
 40
3.760611291047501
 40
3.760611291047501
 40
3.760611291047501
 10
-444.5976734818506
 20
123.0679189263362
 30
0.0
 10
-444.6008494689013
 20
123.5827119174214
 30
0.0
 10
-444.6040254559519
 20
124.0975049085066
 30
0.0
  0
SPLINE
  5
121
330
1F
100
AcDbEntity
  8
MAKE2D VISIBLE LINES
100
AcDbSpline
210
0.0
220
0.0
230
1.0
 70
    24
 71
     2
 72
     6
 73
     3
 74
     0
 42
0.0000000001
 43
0.0000000001
 40
0.0
 40
0.0
 40
0.0
 40
32.63978386932443
 40
32.63978386932443
 40
32.63978386932443
 10
-444.6040254559519
 20
124.0975049085066
 30
0.0
 10
-444.6315910624139
 20
128.5655901919987
 30
0.0
 10
-444.6591566688759
 20
133.0336754754909
 30
0.0
  0
SPLINE
  5
122
330
1F
100
AcDbEntity
  8
MAKE2D VISIBLE LINES
100
AcDbSpline
210
0.0
220
0.0
230
1.0
 70
    24
 71
     2
 72
     6
 73
     3
 74
     0
 42
0.0000000001
 43
0.0000000001
 40
0.0
 40
0.0
 40
0.0
 40
1.378367569850332
 40
1.378367569850332
 40
1.378367569850332
 10
-376.6307403943128
 20
171.5772740294275
 30
0.0
 10
-376.6297063314882
 20
171.765960590566
 30
0.0
 10
-376.6286722686636
 20
171.9546471517044
 30
0.0
  0
SPLINE
  5
123
330
1F
100
AcDbEntity
  8
MAKE2D VISIBLE LINES
100
AcDbSpline
210
0.0
220
0.0
230
1.0
 70
    24
 71
     2
 72
     6
 73
     3
 74
     0
 42
0.0000000001
 43
0.0000000001
 40
-301.4929880382847
 40
-301.4929880382847
 40
-301.4929880382847
 40
0.0
 40
0.0
 40
0.0
 10
-376.6286722686636
 20
171.9546471517044
 30
0.0
 10
-413.2923958537889
 20
153.0025528662921
 30
0.0
 10
-449.9561194389143
 20
134.0504585808799
 30
0.0
  0
SPLINE
  5
124
330
1F
100
AcDbEntity
  8
MAKE2D VISIBLE LINES
100
AcDbSpline
210
0.0
220
0.0
230
1.0
 70
    24
 71
     2
 72
     6
 73
     3
 74
     0
 42
0.0000000001
 43
0.0000000001
 40
0.0
 40
0.0
 40
0.0
 40
11.74698086457201
 40
11.74698086457201
 40
11.74698086457201
 10
-449.9561194389143
 20
134.0504585808799
 30
0.0
 10
-449.9447374953338
 20
132.4424149541791
 30
0.0
 10
-449.9333555517532
 20
130.8343713274783
 30
0.0
  0
SPLINE
  5
125
330
1F
100
AcDbEntity
  8
DEFAULT
100
AcDbSpline
210
0.0
220
0.0
230
1.0
 70
    24
 71
     2
 72
     6
 73
     3
 74
     0
 42
0.0000000001
 43
0.0000000001
 40
0.0
 40
0.0
 40
0.0
 40
12.28019801276281
 40
12.28019801276281
 40
12.28019801276281
 10
-357.2711284994167
 20
179.9181803516864
 30
0.0
 10
-358.9271216979953
 20
180.2075056230679
 30
0.0
 10
-360.5831148965738
 20
180.4968308944494
 30
0.0
  0
SPLINE
  5
126
330
1F
100
AcDbEntity
  8
DEFAULT
100
AcDbSpline
210
0.0
220
0.0
230
1.0
 70
    24
 71
     2
 72
     6
 73
     3
 74
     0
 42
0.0000000001
 43
0.0000000001
 40
-293.7881383878262
 40
-293.7881383878262
 40
-293.7881383878262
 40
0.0
 40
0.0
 40
0.0
 10
-360.5831148965738
 20
180.4968308944494
 30
0.0
 10
-395.7357520585933
 20
160.958367327594
 30
0.0
 10
-430.8883892206128
 20
141.4199037607386
 30
0.0
  0
SPLINE
  5
127
330
1F
100
AcDbEntity
  8
DEFAULT
100
AcDbSpline
210
0.0
220
0.0
230
1.0
 70
    24
 71
     2
 72
     6
 73
     3
 74
     0
 42
0.0000000001
 43
0.0000000001
 40
0.0
 40
0.0
 40
0.0
 40
59.71476530417855
 40
59.71476530417855
 40
59.71476530417855
 10
-371.5612246870657
 20
168.3316516167207
 30
0.0
 10
-364.4319104931675
 20
172.3311822436938
 30
0.0
 10
-357.3025962992692
 20
176.330712870667
 30
0.0
  0
SPLINE
  5
128
330
1F
100
AcDbEntity
  8
DEFAULT
100
AcDbSpline
210
0.0
220
0.0
230
1.0
 70
    24
 71
     2
 72
     6
 73
     3
 74
     0
 42
0.0000000001
 43
0.0000000001
 40
0.0
 40
0.0
 40
0.0
 40
13.1036486457645
 40
13.1036486457645
 40
13.1036486457645
 10
-357.3025962992692
 20
176.330712870667
 30
0.0
 10
-357.286862399343
 20
178.1244466111767
 30
0.0
 10
-357.2711284994167
 20
179.9181803516864
 30
0.0
  0
SPLINE
  5
129
330
1F
100
AcDbEntity
  8
DEFAULT
100
AcDbSpline
210
0.0
220
0.0
230
1.0
 70
    24
 71
     2
 72
     6
 73
     3
 74
     0
 42
0.0000000001
 43
0.0000000001
 40
-64.83851440250648
 40
-64.83851440250648
 40
-64.83851440250648
 40
0.0
 40
0.0
 40
0.0
 10
-357.2711284994167
 20
179.9181803516864
 30
0.0
 10
-365.0223548111779
 20
175.5936900901042
 30
0.0
 10
-372.7735811229392
 20
171.269199828522
 30
0.0
  0
SPLINE
  5
12A
330
1F
100
AcDbEntity
  8
MAKE2D VISIBLE LINES
100
AcDbSpline
210
0.0
220
0.0
230
1.0
 70
    24
 71
     2
 72
     6
 73
     3
 74
     0
 42
0.0000000001
 43
0.0000000001
 40
0.0
 40
0.0
 40
0.0
 40
4.700176702842354
 40
4.700176702842354
 40
4.700176702842354
 10
-449.8947799182366
 20
125.3843968847573
 30
0.0
 10
-449.8902257994662
 20
124.7409899295142
 30
0.0
 10
-449.8856716806959
 20
124.0975829742711
 30
0.0
  0
SPLINE
  5
12B
330
1F
100
AcDbEntity
  8
MAKE2D VISIBLE LINES
100
AcDbSpline
210
0.0
220
0.0
230
1.0
 70
    24
 71
     2
 72
     6
 73
     3
 74
     0
 42
0.0000000001
 43
0.0000000001
 40
0.0
 40
0.0
 40
0.0
 40
6.459573848855788
 40
6.459573848855788
 40
6.459573848855788
 10
-449.8856716806959
 20
124.0975829742711
 30
0.0
 10
-450.7536431797085
 20
124.2665919288053
 30
0.0
 10
-451.6216146787212
 20
124.4356008833395
 30
0.0
  0
SPLINE
  5
12C
330
1F
100
AcDbEntity
  8
MAKE2D VISIBLE LINES
100
AcDbSpline
210
0.0
220
0.0
230
1.0
 70
    24
 71
     2
 72
     6
 73
     3
 74
     0
 42
0.0000000001
 43
0.0000000001
 40
0.0
 40
0.0
 40
0.0
 40
3.754196479961807
 40
3.754196479961807
 40
3.754196479961807
 10
-451.6216146787212
 20
124.4356008833395
 30
0.0
 10
-451.6254054709201
 20
124.9495115452611
 30
0.0
 10
-451.629196263119
 20
125.4634222071827
 30
0.0
  0
SPLINE
  5
12D
330
1F
100
AcDbEntity
  8
MAKE2D VISIBLE LINES
100
AcDbSpline
210
0.0
220
0.0
230
1.0
 70
    24
 71
     2
 72
     6
 73
     3
 74
     0
 42
0.0000000001
 43
0.0000000001
 40
0.0
 40
0.0
 40
0.0
 40
0.9439962884530906
 40
0.9439962884530906
 40
0.9439962884530906
 10
-451.629196263119
 20
125.4634222071827
 30
0.0
 10
-451.6301494614358
 20
125.5926455336761
 30
0.0
 10
-451.6311026597528
 20
125.7218688601695
 30
0.0
  0
MTEXT
  5
12E
330
1F
100
AcDbEntity
  8
LAYER 01
100
AcDbMText
 10
440.0940049141172
 20
94.87587624798218
 30
0.0
 40
5.0
 41
99.25806451612902
 71
     1
 72
     1
  1
\fTahoma;DIREZIONE CANALI POLIONDA\P
 73
     2
 44
0.9638554216867471
  0
SPLINE
  5
12F
330
1F
100
AcDbEntity
  8
LAYER 01
100
AcDbSpline
210
0.0
220
0.0
230
1.0
 70
     8
 71
     2
 72
     8
 73
     5
 74
     0
 42
0.0000000001
 43
0.0000000001
 40
0.0
 40
0.0
 40
0.0
 40
87.45062129261669
 40
87.45062129261669
 40
271.4300129665182
 40
271.4300129665182
 40
271.4300129665182
 10
527.3628653586751
 20
87.7328992819869
 30
0.0
 10
483.6375547123668
 20
87.7328992819869
 30
0.0
 10
439.9122440660584
 20
87.7328992819869
 30
0.0
 10
329.3508216137208
 20
0.4083745585256651
 30
0.0
 10
218.7893991613832
 20
-86.91615016493557
 30
0.0
  0
SPLINE
  5
130
330
1F
100
AcDbEntity
  8
LAYER 01
100
AcDbSpline
210
0.0
220
0.0
230
1.0
 70
     8
 71
     2
 72
    12
 73
     9
 74
     0
 42
0.0000000001
 43
0.0000000001
 40
-289.2830832857837
 40
-289.2830832857837
 40
-289.2830832857837
 40
-284.5429452063318
 40
-284.5429452063318
 40
-277.0767765205655
 40
-277.0767765205655
 40
-269.6106078347993
 40
-269.6106078347993
 40
-264.8704697553474
 40
-264.8704697553474
 40
-264.8704697553474
 10
218.6932310513088
 20
-86.80699222394901
 30
0.0
 10
220.2599664258511
 20
-88.58535313198361
 30
0.0
 10
221.8267018003933
 20
-90.36371404001821
 30
0.0
 10
218.0937213797762
 20
-90.39156884872234
 30
0.0
 10
214.360740959159
 20
-90.41942365742648
 30
0.0
 10
215.2471733733879
 20
-86.79310923558116
 30
0.0
 10
216.1336057876167
 20
-83.16679481373583
 30
0.0
 10
217.5035467914249
 20
-85.10082917205332
 30
0.0
 10
218.8734877952331
 20
-87.03486353037081
 30
0.0
  0
LINE
  5
131
330
1F
100
AcDbEntity
  8
LAYER 01
100
AcDbLine
 10
-456.6598166681247
 20
43.95054736527442
 30
0.0
 11
-369.209195375508
 21
43.95054736527442
 31
0.0
  0
LINE
  5
132
330
1F
100
AcDbEntity
  8
LAYER 01
100
AcDbLine
 10
-369.209195375508
 20
43.95054736527442
 30
0.0
 11
-224.9173662280224
 21
-70.1909639352674
 31
0.0
  0
LINE
  5
133
330
1F
100
AcDbEntity
  8
LAYER 01
100
AcDbLine
 10
-224.821198117948
 20
-70.08180599428084
 30
0.0
 11
-227.9546688670325
 21
-73.63852781035004
 31
0.0
  0
LINE
  5
134
330
1F
100
AcDbEntity
  8
LAYER 01
100
AcDbLine
 10
-227.9546688670325
 20
-73.63852781035004
 30
0.0
 11
-220.4887080257982
 21
-73.69423742775831
 31
0.0
  0
LINE
  5
135
330
1F
100
AcDbEntity
  8
LAYER 01
100
AcDbLine
 10
-220.4887080257982
 20
-73.69423742775831
 30
0.0
 11
-222.2615728542559
 21
-66.44160858406767
 31
0.0
  0
LINE
  5
136
330
1F
100
AcDbEntity
  8
LAYER 01
100
AcDbLine
 10
-222.2615728542559
 20
-66.44160858406767
 30
0.0
 11
-225.0014548618724
 21
-70.30967730070266
 31
0.0
  0
POLYLINE
  5
137
330
1F
100
AcDbEntity
  8
0
100
AcDb2dPolyline
 66
     1
 10
0.0
 20
0.0
 30
0.0
  0
VERTEX
  5
139
330
137
100
AcDbEntity
  8
0
100
AcDbVertex
100
AcDb2dVertex
 10
131.8032684082233
 20
-114.5130958377326
 30
0.0
  0
VERTEX
  5
13A
330
137
100
AcDbEntity
  8
0
100
AcDbVertex
100
AcDb2dVertex
 10
252.7819052604438
 20
-114.5130958377326
 30
0.0
  0
SEQEND
  5
138
330
137
100
AcDbEntity
  8
0
  0
POLYLINE
  5
13B
330
1F
100
AcDbEntity
  8
0
100
AcDb2dPolyline
 66
     1
 10
0.0
 20
0.0
 30
0.0
  0
VERTEX
  5
13D
330
13B
100
AcDbEntity
  8
0
100
AcDbVertex
100
AcDb2dVertex
 10
117.5758383220338
 20
-120.1291866612285
 30
0.0
  0
VERTEX
  5
13E
330
13B
100
AcDbEntity
  8
0
100
AcDbVertex
100
AcDb2dVertex
 10
238.5544751742542
 20
-120.1291866612285
 30
0.0
  0
SEQEND
  5
13C
330
13B
100
AcDbEntity
  8
0
  0
POLYLINE
  5
13F
330
1F
100
AcDbEntity
  8
0
100
AcDb2dPolyline
 66
     1
 10
0.0
 20
0.0
 30
0.0
  0
VERTEX
  5
141
330
13F
100
AcDbEntity
  8
0
100
AcDbVertex
100
AcDb2dVertex
 10
131.8032684082233
 20
-103.2809141907416
 30
0.0
  0
VERTEX
  5
142
330
13F
100
AcDbEntity
  8
0
100
AcDbVertex
100
AcDb2dVertex
 10
252.7819052604437
 20
-103.2809141907404
 30
0.0
  0
SEQEND
  5
140
330
13F
100
AcDbEntity
  8
0
  0
POLYLINE
  5
143
330
1F
100
AcDbEntity
  8
0
100
AcDb2dPolyline
 66
     1
 10
0.0
 20
0.0
 30
0.0
  0
VERTEX
  5
145
330
143
100
AcDbEntity
  8
0
100
AcDbVertex
100
AcDb2dVertex
 10
102.5995961260447
 20
-100.4728687789939
 30
0.0
  0
VERTEX
  5
146
330
143
100
AcDbEntity
  8
0
100
AcDbVertex
100
AcDb2dVertex
 10
223.5782329782651
 20
-100.4728687789927
 30
0.0
  0
SEQEND
  5
144
330
143
100
AcDbEntity
  8
0
  0
POLYLINE
  5
147
330
1F
100
AcDbEntity
  8
0
100
AcDb2dPolyline
 66
     1
 10
0.0
 20
0.0
 30
0.0
  0
VERTEX
  5
149
330
147
100
AcDbEntity
  8
0
100
AcDbVertex
100
AcDb2dVertex
 10
117.5758383220337
 20
-97.66482336724577
 30
0.0
  0
VERTEX
  5
14A
330
147
100
AcDbEntity
  8
0
100
AcDbVertex
100
AcDb2dVertex
 10
238.5544751742541
 20
-97.66482336724464
 30
0.0
  0
SEQEND
  5
148
330
147
100
AcDbEntity
  8
0
  0
POLYLINE
  5
14B
330
1F
100
AcDbEntity
  8
0
100
AcDb2dPolyline
 66
     1
 10
0.0
 20
0.0
 30
0.0
  0
VERTEX
  5
14D
330
14B
100
AcDbEntity
  8
0
100
AcDbVertex
100
AcDb2dVertex
 10
102.5995961260448
 20
-117.3211412494806
 30
0.0
  0
VERTEX
  5
14E
330
14B
100
AcDbEntity
  8
0
100
AcDbVertex
100
AcDb2dVertex
 10
223.5782329782652
 20
-117.3211412494806
 30
0.0
  0
SEQEND
  5
14C
330
14B
100
AcDbEntity
  8
0
  0
POLYLINE
  5
14F
330
1F
100
AcDbEntity
  8
0
100
AcDb2dPolyline
 66
     1
 10
0.0
 20
0.0
 30
0.0
  0
VERTEX
  5
151
330
14F
100
AcDbEntity
  8
0
100
AcDbVertex
100
AcDb2dVertex
 10
102.5995961260448
 20
-111.705050425985
 30
0.0
  0
VERTEX
  5
152
330
14F
100
AcDbEntity
  8
0
100
AcDbVertex
100
AcDb2dVertex
 10
223.5782329782652
 20
-111.7050504259846
 30
0.0
  0
SEQEND
  5
150
330
14F
100
AcDbEntity
  8
0
  0
POLYLINE
  5
153
330
1F
100
AcDbEntity
  8
0
100
AcDb2dPolyline
 66
     1
 10
0.0
 20
0.0
 30
0.0
  0
VERTEX
  5
155
330
153
100
AcDbEntity
  8
0
100
AcDbVertex
100
AcDb2dVertex
 10
102.5995961260448
 20
-106.0889596024895
 30
0.0
  0
VERTEX
  5
156
330
153
100
AcDbEntity
  8
0
100
AcDbVertex
100
AcDb2dVertex
 10
223.5782329782652
 20
-106.0889596024887
 30
0.0
  0
SEQEND
  5
154
330
153
100
AcDbEntity
  8
0
  0
POLYLINE
  5
157
330
1F
100
AcDbEntity
  8
0
100
AcDb2dPolyline
 66
     1
 10
0.0
 20
0.0
 30
0.0
  0
VERTEX
  5
159
330
157
100
AcDbEntity
  8
0
100
AcDbVertex
100
AcDb2dVertex
 10
117.5758383220337
 20
-108.897005014237
 30
0.0
  0
VERTEX
  5
15A
330
157
100
AcDbEntity
  8
0
100
AcDbVertex
100
AcDb2dVertex
 10
238.5544751742542
 20
-108.8970050142366
 30
0.0
  0
SEQEND
  5
158
330
157
100
AcDbEntity
  8
0
  0
MTEXT
  5
15B
330
1F
100
AcDbEntity
  8
LAYER 01
100
AcDbMText
 10
-456.802942543633
 20
51.44077261142429
 30
0.0
 40
5.0
 41
92.3225806451613
 71
     1
 72
     1
  1
\fTahoma;LONGHERONE IN CARBONIO 
 73
     2
 44
0.9638554216867471
  0
DIMENSION
  5
15D
330
1F
100
AcDbEntity
  8
LAYER 02
100
AcDbDimension
  2
*D1
 10
15.38102680874863
 20
-220.0628677262042
 30
0.0
 11
15.38102680874864
 21
-165.1298745116013
 31
0.0
 70
    32
  1
<>
 71
     5
 42
109.8659864292057
  3
DIMENSION STYLE 01
100
AcDbAlignedDimension
 13
7.362917419152808
 23
-110.1968812969985
 33
0.0
 14
357.411745985944
 24
-220.0628677262042
 34
0.0
 50
90.0
100
AcDbRotatedDimension
  0
MTEXT
  5
16E
330
1F
100
AcDbEntity
  8
LAYER 01
100
AcDbMText
 10
360.4619266914213
 20
-447.1760657817368
 30
0.0
 40
3.0
 41
93.25161290322582
 71
     1
 72
     1
  1
\fTahoma;apertura alare: 70 cm\Ppeso: 480 gr\Pbatterie:  1000 mah 3SP\Pregolatore:  18 A\Pmotore: BL Inrunner KB20-40L-20L 2900kv \Pelica: APC 4.1X4.1\Pservi: Vigor 8.0g / 1.5kg / .14sec Ultra-Thin Servo
 73
     2
 44
0.9638554216867472
  0
MTEXT
  5
16F
330
1F
100
AcDbEntity
  8
LAYER 01
100
AcDbMText
 10
359.6765846764509
 20
-429.9047000979264
 30
0.0
 40
10.0
 41
84.83870967741936
 71
     1
 72
     1
  1
\fTahoma;MICRO ZAGI 
 73
     2
 44
0.9638554216867471
  0
SPLINE
  5
170
330
1F
100
AcDbEntity
  8
0
 62
     5
100
AcDbSpline
210
0.0
220
0.0
230
1.0
 70
    24
 71
     2
 72
     6
 73
     3
 74
     0
 42
0.0000000001
 43
0.0000000001
 40
0.0
 40
0.0
 40
0.0
 40
28.8739409419677
 40
28.8739409419677
 40
28.8739409419677
 10
483.2028870929672
 20
-443.6060314525705
 30
0.0
 10
483.2028870929672
 20
-464.1776505811508
 30
0.0
 10
483.2028870929672
 20
-484.7492697097312
 30
0.0
  0
SPLINE
  5
172
330
1F
100
AcDbEntity
  8
FRAME 070
100
AcDbSpline
210
0.0
220
0.0
230
1.0
 70
    24
 71
     2
 72
     6
 73
     3
 74
     0
 42
0.0000000001
 43
0.0000000001
 40
0.0
 40
0.0
 40
0.0
 40
240.755655413489
 40
240.755655413489
 40
240.755655413489
 10
596.1644045029425
 20
-425.2991709421044
 30
0.0
 10
475.786576796198
 20
-425.2991709421044
 30
0.0
 10
355.4087490894536
 20
-425.2991709421044
 30
0.0
  0
SPLINE
  5
173
330
1F
100
AcDbEntity
  8
FRAME 070
100
AcDbSpline
210
0.0
220
0.0
230
1.0
 70
    24
 71
     2
 72
     6
 73
     3
 74
     0
 42
0.0000000001
 43
0.0000000001
 40
0.0
 40
0.0
 40
0.0
 40
240.4047712268653
 40
240.4047712268653
 40
240.4047712268653
 10
355.7596332760773
 20
-443.8049013320447
 30
0.0
 10
475.9620188895099
 20
-443.8049013320447
 30
0.0
 10
596.1644045029425
 20
-443.8049013320447
 30
0.0
  0
SPLINE
  5
174
330
1F
100
AcDbEntity
  8
FRAME 070
100
AcDbSpline
210
0.0
220
0.0
230
1.0
 70
    24
 71
     2
 72
     6
 73
     3
 74
     0
 42
0.0000000001
 43
0.0000000001
 40
0.0
 40
0.0
 40
0.0
 40
47.16230630789238
 40
47.16230630789238
 40
47.16230630789238
 10
355.4087490894536
 20
-425.2991709421044
 30
0.0
 10
355.4087490894536
 20
-455.014972753647
 30
0.0
 10
355.4087490894536
 20
-484.7307745651897
 30
0.0
  0
LINE
  5
176
330
1F
100
AcDbEntity
  8
FRAME 050
100
AcDbLine
 10
-7.835595497057454
 20
-489.7307745651897
 30
0.0
 11
-7.835595497057454
 21
-484.7307745651897
 31
0.0
  0
LINE
  5
177
330
1F
100
AcDbEntity
  8
FRAME 050
100
AcDbLine
 10
12.16440450294255
 20
-489.7307745651897
 30
0.0
 11
12.16440450294255
 21
-484.7307745651897
 31
0.0
  0
MTEXT
  5
178
330
1F
100
AcDbEntity
  8
FRAME 050
100
AcDbMText
 10
-555.9355954970574
 20
-57.73077456518968
 30
0.0
 40
4.0
 41
7.108433734939759
 71
     1
 72
     1
  1
\fArial;H
 73
     2
 44
0.9638554216867471
  0
LINE
  5
179
330
1F
100
AcDbEntity
  8
FRAME 050
100
AcDbLine
 10
2.164404502942546
 20
-489.7307745651897
 30
0.0
 11
2.164404502942546
 21
-484.7307745651897
 31
0.0
  0
LINE
  5
17A
330
1F
100
AcDbEntity
  8
FRAME 050
100
AcDbLine
 10
-49.58559549705745
 20
-489.7307745651897
 30
0.0
 11
-49.58559549705745
 21
-484.7307745651897
 31
0.0
  0
LINE
  5
17B
330
1F
100
AcDbEntity
  8
FRAME 050
100
AcDbLine
 10
-121.3355954970575
 20
-489.7307745651897
 30
0.0
 11
-121.3355954970575
 21
-484.7307745651897
 31
0.0
  0
MTEXT
  5
17C
330
1F
100
AcDbEntity
  8
FRAME 050
100
AcDbMText
 10
-86.86059549705755
 20
-485.2307745651897
 30
0.0
 40
4.0
 41
6.602409638554217
 71
     1
 72
     1
  1
\fArial;7
 73
     2
 44
0.9638554216867471
  0
LINE
  5
17D
330
1F
100
AcDbEntity
  8
FRAME 050
100
AcDbLine
 10
524.4144045029425
 20
315.2692254348103
 30
0.0
 11
524.4144045029425
 21
320.2692254348103
 31
0.0
  0
MTEXT
  5
17E
330
1F
100
AcDbEntity
  8
FRAME 050
100
AcDbMText
 10
486.0565617904682
 20
319.852068147285
 30
0.0
 40
4.0
 41
9.349397590361445
 71
     1
 72
     1
  1
\fArial;15
 73
     2
 44
0.9638554216867471
  0
LINE
  5
17F
330
1F
100
AcDbEntity
  8
FRAME 050
100
AcDbLine
 10
452.6644045029425
 20
315.2692254348103
 30
0.0
 11
452.6644045029425
 21
320.2692254348103
 31
0.0
  0
LINE
  5
180
330
1F
100
AcDbEntity
  8
FRAME 050
100
AcDbLine
 10
-17.83559549705745
 20
-489.7307745651897
 30
0.0
 11
-17.83559549705745
 21
-484.7307745651897
 31
0.0
  0
LINE
  5
181
330
1F
100
AcDbEntity
  8
FRAME 050
100
AcDbLine
 10
-27.83559549705745
 20
-489.7307745651897
 30
0.0
 11
-27.83559549705745
 21
-484.7307745651897
 31
0.0
  0
LINE
  5
182
330
1F
100
AcDbEntity
  8
FRAME 050
100
AcDbLine
 10
596.1644045029425
 20
265.2692254348103
 30
0.0
 11
601.1644045029425
 21
265.2692254348103
 31
0.0
  0
MTEXT
  5
183
330
1F
100
AcDbEntity
  8
FRAME 050
100
AcDbMText
 10
596.8644045029423
 20
292.2692254348103
 30
0.0
 40
4.0
 41
7.686746987951807
 71
     1
 72
     1
  1
\fArial;A
 73
     2
 44
0.9638554216867471
  0
MTEXT
  5
184
330
1F
100
AcDbEntity
  8
FRAME 050
100
AcDbMText
 10
557.7901919045171
 20
319.6794616552828
 30
0.0
 40
4.0
 41
9.349397590361445
 71
     1
 72
     1
  1
\fArial;16
 73
     2
 44
0.9638554216867471
  0
MTEXT
  5
185
330
1F
100
AcDbEntity
  8
FRAME 050
100
AcDbMText
 10
-555.6184382095321
 20
-157.647931852715
 30
0.0
 40
4.0
 41
6.168674698795181
 71
     1
 72
     1
  1
\fArial;J
 73
     2
 44
0.9638554216867471
  0
LINE
  5
186
330
1F
100
AcDbEntity
  8
FRAME 050
100
AcDbLine
 10
-556.8355954970575
 20
-184.7307745651897
 30
0.0
 11
-551.8355954970575
 21
-184.7307745651897
 31
0.0
  0
MTEXT
  5
187
330
1F
100
AcDbEntity
  8
FRAME 050
100
AcDbMText
 10
-554.9355954970574
 20
-107.7307745651897
 30
0.0
 40
4.0
 41
4.554216867469879
 71
     1
 72
     1
  1
\fArial;I
 73
     2
 44
0.9638554216867471
  0
LINE
  5
188
330
1F
100
AcDbEntity
  8
FRAME 050
100
AcDbLine
 10
-556.8355954970575
 20
-134.7307745651897
 30
0.0
 11
-551.8355954970575
 21
-134.7307745651897
 31
0.0
  0
MTEXT
  5
189
330
1F
100
AcDbEntity
  8
FRAME 050
100
AcDbMText
 10
-158.5901230561125
 20
-485.3205383447172
 30
0.0
 40
4.0
 41
6.650602409638554
 71
     1
 72
     1
  1
\fArial;6
 73
     2
 44
0.9638554216867471
  0
MTEXT
  5
18A
330
1F
100
AcDbEntity
  8
FRAME 050
100
AcDbMText
 10
-555.7355954970576
 20
42.26922543481032
 30
0.0
 40
4.0
 41
6.698795180722891
 71
     1
 72
     1
  1
\fArial;F
 73
     2
 44
0.9638554216867471
  0
LINE
  5
18B
330
1F
100
AcDbEntity
  8
FRAME 050
100
AcDbLine
 10
-556.8355954970575
 20
15.26922543481032
 30
0.0
 11
-551.8355954970575
 21
15.26922543481032
 31
0.0
  0
MTEXT
  5
18C
330
1F
100
AcDbEntity
  8
FRAME 050
100
AcDbMText
 10
-555.8320421064643
 20
-7.730774565189677
 30
0.0
 40
4.0
 41
7.734939759036145
 71
     1
 72
     1
  1
\fArial;G
 73
     2
 44
0.9638554216867471
  0
LINE
  5
18D
330
1F
100
AcDbEntity
  8
FRAME 050
100
AcDbLine
 10
-554.3355954970575
 20
-84.73077456518968
 30
0.0
 11
-549.3355954970575
 21
-82.23077456518968
 31
0.0
  0
LINE
  5
18E
330
1F
100
AcDbEntity
  8
FRAME 050
100
AcDbLine
 10
-556.8355954970575
 20
-34.73077456518968
 30
0.0
 11
-551.8355954970575
 21
-34.73077456518968
 31
0.0
  0
LINE
  5
18F
330
1F
100
AcDbEntity
  8
FRAME 050
100
AcDbLine
 10
-549.3355954970575
 20
-87.23077456518968
 30
0.0
 11
-554.3355954970575
 21
-84.73077456518968
 31
0.0
  0
LINE
  5
190
330
1F
100
AcDbEntity
  8
FRAME 050
100
AcDbLine
 10
-556.8355954970575
 20
-84.73077456518968
 30
0.0
 11
-546.8355954970575
 21
-84.73077456518968
 31
0.0
  0
LINE
  5
191
330
1F
100
AcDbEntity
  8
FRAME 050
100
AcDbLine
 10
-549.3355954970575
 20
-82.23077456518968
 30
0.0
 11
-549.3355954970575
 21
-87.23077456518968
 31
0.0
  0
MTEXT
  5
192
330
1F
100
AcDbEntity
  8
0
100
AcDbMText
 10
66.21076364306242
 20
-477.4669733844773
 30
0.0
 40
4.0
 41
9.349397590361445
 71
     1
 72
     1
  1
\fBankGothic Lt BT;10
 73
     2
 44
0.9638554216867471
  0
MTEXT
  5
193
330
1F
100
AcDbEntity
  8
0
100
AcDbMText
 10
17.55321325021083
 20
-473.5890810559583
 30
0.0
 40
4.0
 41
10.8433734939759
 71
     1
 72
     1
  1
\fBankGothic Lt BT;cm
 73
     2
 44
0.9638554216867471
  0
MTEXT
  5
194
330
1F
100
AcDbEntity
  8
0
100
AcDbMText
 10
-32.17302136304119
 20
-477.4669733844773
 30
0.0
 40
4.0
 41
5.493975903614459
 71
     1
 72
     1
  1
\fBankGothic Lt BT;1
 73
     2
 44
0.9638554216867471
  0
LINE
  5
195
330
1F
100
AcDbEntity
  8
FRAME 050
100
AcDbLine
 10
62.16440450294255
 20
-489.7307745651897
 30
0.0
 11
62.16440450294255
 21
-484.7307745651897
 31
0.0
  0
LINE
  5
196
330
1F
100
AcDbEntity
  8
FRAME 050
100
AcDbLine
 10
32.16440450294255
 20
-489.7307745651897
 30
0.0
 11
32.16440450294255
 21
-484.7307745651897
 31
0.0
  0
LINE
  5
197
330
1F
100
AcDbEntity
  8
FRAME 050
100
AcDbLine
 10
24.66440450294255
 20
-482.2307745651897
 30
0.0
 11
22.16440450294255
 21
-487.2307745651897
 31
0.0
  0
MTEXT
  5
198
330
1F
100
AcDbEntity
  8
FRAME 050
100
AcDbMText
 10
-555.9455954970574
 20
-207.7307745651897
 30
0.0
 40
4.0
 41
7.301204819277109
 71
     1
 72
     1
  1
\fArial;K
 73
     2
 44
0.9638554216867471
  0
MTEXT
  5
199
330
1F
100
AcDbEntity
  8
FRAME 050
100
AcDbMText
 10
-555.7355954970576
 20
-257.7307745651897
 30
0.0
 40
4.0
 41
6.53012048192771
 71
     1
 72
     1
  1
\fArial;L
 73
     2
 44
0.9638554216867471
  0
LINE
  5
19A
330
1F
100
AcDbEntity
  8
FRAME 050
100
AcDbLine
 10
-556.8355954970575
 20
-284.7307745651897
 30
0.0
 11
-551.8355954970575
 21
-284.7307745651897
 31
0.0
  0
LINE
  5
19B
330
1F
100
AcDbEntity
  8
FRAME 050
100
AcDbLine
 10
-556.8355954970575
 20
-234.7307745651897
 30
0.0
 11
-551.8355954970575
 21
-234.7307745651897
 31
0.0
  0
LINE
  5
19C
330
1F
100
AcDbEntity
  8
FRAME 050
100
AcDbLine
 10
-556.8355954970575
 20
265.2692254348103
 30
0.0
 11
-551.8355954970575
 21
265.2692254348103
 31
0.0
  0
MTEXT
  5
19D
330
1F
100
AcDbEntity
  8
FRAME 050
100
AcDbMText
 10
-556.1355954970575
 20
292.2692254348103
 30
0.0
 40
4.0
 41
7.686746987951807
 71
     1
 72
     1
  1
\fArial;A
 73
     2
 44
0.9638554216867471
  0
LINE
  5
19E
330
1F
100
AcDbEntity
  8
FRAME 050
100
AcDbLine
 10
-556.8355954970575
 20
215.2692254348103
 30
0.0
 11
-551.8355954970575
 21
215.2692254348103
 31
0.0
  0
MTEXT
  5
19F
330
1F
100
AcDbEntity
  8
FRAME 050
100
AcDbMText
 10
-516.9605954970575
 20
319.7692254348103
 30
0.0
 40
4.0
 41
5.493975903614459
 71
     1
 72
     1
  1
\fArial;1
 73
     2
 44
0.9638554216867471
  0
LINE
  5
1A0
330
1F
100
AcDbEntity
  8
FRAME 050
100
AcDbLine
 10
-556.8355954970575
 20
65.26922543481032
 30
0.0
 11
-551.8355954970575
 21
65.26922543481032
 31
0.0
  0
MTEXT
  5
1A1
330
1F
100
AcDbEntity
  8
FRAME 050
100
AcDbMText
 10
-555.7355954970576
 20
92.26922543481032
 30
0.0
 40
4.0
 41
6.963855421686747
 71
     1
 72
     1
  1
\fArial;E
 73
     2
 44
0.9638554216867471
  0
LINE
  5
1A2
330
1F
100
AcDbEntity
  8
FRAME 050
100
AcDbLine
 10
-556.8355954970575
 20
115.2692254348103
 30
0.0
 11
-551.8355954970575
 21
115.2692254348103
 31
0.0
  0
LINE
  5
1A3
330
1F
100
AcDbEntity
  8
FRAME 050
100
AcDbLine
 10
-49.58559549705745
 20
315.2692254348103
 30
0.0
 11
-49.58559549705745
 21
320.2692254348103
 31
0.0
  0
MTEXT
  5
1A4
330
1F
100
AcDbEntity
  8
FRAME 050
100
AcDbMText
 10
-555.9355954970574
 20
242.2692254348103
 30
0.0
 40
4.0
 41
7.036144578313253
 71
     1
 72
     1
  1
\fArial;B
 73
     2
 44
0.9638554216867471
  0
MTEXT
  5
1A5
330
1F
100
AcDbEntity
  8
FRAME 050
100
AcDbMText
 10
-86.86059549705755
 20
319.7692254348103
 30
0.0
 40
4.0
 41
6.602409638554217
 71
     1
 72
     1
  1
\fArial;7
 73
     2
 44
0.9638554216867471
  0
LINE
  5
1A6
330
1F
100
AcDbEntity
  8
FRAME 050
100
AcDbLine
 10
-556.8355954970575
 20
165.2692254348103
 30
0.0
 11
-551.8355954970575
 21
165.2692254348103
 31
0.0
  0
MTEXT
  5
1A7
330
1F
100
AcDbEntity
  8
FRAME 050
100
AcDbMText
 10
-556.04950422671
 20
142.2692254348103
 30
0.0
 40
4.0
 41
7.301204819277109
 71
     1
 72
     1
  1
\fArial;D
 73
     2
 44
0.9638554216867471
  0
MTEXT
  5
1A8
330
1F
100
AcDbEntity
  8
FRAME 050
100
AcDbMText
 10
-556.1355954970575
 20
-307.7307745651897
 30
0.0
 40
4.0
 41
7.855421686746988
 71
     1
 72
     1
  1
\fArial;M
 73
     2
 44
0.9638554216867471
  0
LINE
  5
1A9
330
1F
100
AcDbEntity
  8
FRAME 050
100
AcDbLine
 10
-556.8355954970575
 20
-334.7307745651897
 30
0.0
 11
-551.8355954970575
 21
-334.7307745651897
 31
0.0
  0
MTEXT
  5
1AA
330
1F
100
AcDbEntity
  8
FRAME 050
100
AcDbMText
 10
-373.9434382095321
 20
-485.147931852715
 30
0.0
 40
4.0
 41
6.626506024096386
 71
     1
 72
     1
  1
\fArial;3
 73
     2
 44
0.9638554216867471
  0
LINE
  5
1AB
330
1F
100
AcDbEntity
  8
FRAME 050
100
AcDbLine
 10
-480.0855954970575
 20
-489.7307745651897
 30
0.0
 11
-480.0855954970575
 21
-484.7307745651897
 31
0.0
  0
LINE
  5
1AC
330
1F
100
AcDbEntity
  8
FRAME 050
100
AcDbLine
 10
-556.8355954970575
 20
-384.7307745651897
 30
0.0
 11
-551.8355954970575
 21
-384.7307745651897
 31
0.0
  0
LINE
  5
1AD
330
1F
100
AcDbEntity
  8
FRAME 050
100
AcDbLine
 10
-408.3355954970575
 20
-489.7307745651897
 30
0.0
 11
-408.3355954970575
 21
-484.7307745651897
 31
0.0
  0
MTEXT
  5
1AE
330
1F
100
AcDbEntity
  8
FRAME 050
100
AcDbMText
 10
-516.9605954970575
 20
-485.2307745651897
 30
0.0
 40
4.0
 41
5.493975903614459
 71
     1
 72
     1
  1
\fArial;1
 73
     2
 44
0.9638554216867471
  0
MTEXT
  5
1AF
330
1F
100
AcDbEntity
  8
FRAME 050
100
AcDbMText
 10
-445.6799262057188
 20
-485.3311682659771
 30
0.0
 40
4.0
 41
6.626506024096386
 71
     1
 72
     1
  1
\fArial;2
 73
     2
 44
0.9638554216867471
  0
LINE
  5
1B0
330
1F
100
AcDbEntity
  8
FRAME 050
100
AcDbLine
 10
-556.8355954970575
 20
-434.7307745651897
 30
0.0
 11
-551.8355954970575
 21
-434.7307745651897
 31
0.0
  0
MTEXT
  5
1B1
330
1F
100
AcDbEntity
  8
FRAME 050
100
AcDbMText
 10
-555.9355954970574
 20
-357.7307745651897
 30
0.0
 40
4.0
 41
7.108433734939759
 71
     1
 72
     1
  1
\fArial;N
 73
     2
 44
0.9638554216867471
  0
MTEXT
  5
1B2
330
1F
100
AcDbEntity
  8
FRAME 050
100
AcDbMText
 10
-555.9355954970574
 20
-407.7307745651897
 30
0.0
 40
4.0
 41
7.80722891566265
 71
     1
 72
     1
  1
\fArial;O
 73
     2
 44
0.9638554216867471
  0
LINE
  5
1B3
330
1F
100
AcDbEntity
  8
FRAME 050
100
AcDbLine
 10
22.16440450294255
 20
-484.7307745651897
 30
0.0
 11
22.16440450294255
 21
-489.7307745651897
 31
0.0
  0
LINE
  5
1B4
330
1F
100
AcDbEntity
  8
FRAME 050
100
AcDbLine
 10
19.66440450294255
 20
-482.2307745651897
 30
0.0
 11
24.66440450294255
 21
-482.2307745651897
 31
0.0
  0
LINE
  5
1B5
330
1F
100
AcDbEntity
  8
FRAME 050
100
AcDbLine
 10
93.91440450294255
 20
-489.7307745651897
 30
0.0
 11
93.91440450294255
 21
-484.7307745651897
 31
0.0
  0
MTEXT
  5
1B6
330
1F
100
AcDbEntity
  8
FRAME 050
100
AcDbMText
 10
199.5394045029425
 20
-485.2307745651897
 30
0.0
 40
4.0
 41
8.578313253012048
 71
     1
 72
     1
  1
\fArial;11
 73
     2
 44
0.9638554216867471
  0
LINE
  5
1B7
330
1F
100
AcDbEntity
  8
FRAME 050
100
AcDbLine
 10
52.16440450294255
 20
-489.7307745651897
 30
0.0
 11
52.16440450294255
 21
-484.7307745651897
 31
0.0
  0
MTEXT
  5
1B8
330
1F
100
AcDbEntity
  8
FRAME 050
100
AcDbMText
 10
127.3878296997928
 20
-485.2307745651897
 30
0.0
 40
4.0
 41
9.349397590361445
 71
     1
 72
     1
  1
\fArial;10
 73
     2
 44
0.9638554216867471
  0
LINE
  5
1B9
330
1F
100
AcDbEntity
  8
FRAME 050
100
AcDbLine
 10
22.16440450294255
 20
-484.7307745651897
 30
0.0
 11
22.16440450294255
 21
-479.7307745651897
 31
0.0
  0
LINE
  5
1BA
330
1F
100
AcDbEntity
  8
FRAME 050
100
AcDbLine
 10
72.16440450294255
 20
-489.7307745651897
 30
0.0
 11
72.16440450294255
 21
-484.7307745651897
 31
0.0
  0
LINE
  5
1BB
330
1F
100
AcDbEntity
  8
FRAME 050
100
AcDbLine
 10
42.16440450294255
 20
-489.7307745651897
 30
0.0
 11
42.16440450294255
 21
-484.7307745651897
 31
0.0
  0
MTEXT
  5
1BC
330
1F
100
AcDbEntity
  8
FRAME 050
100
AcDbMText
 10
-15.11059549705755
 20
319.7692254348103
 30
0.0
 40
4.0
 41
6.602409638554217
 71
     1
 72
     1
  1
\fArial;8
 73
     2
 44
0.9638554216867471
  0
MTEXT
  5
1BD
330
1F
100
AcDbEntity
  8
FRAME 050
100
AcDbMText
 10
-555.6423974455236
 20
192.2692254348103
 30
0.0
 40
4.0
 41
7.542168674698795
 71
     1
 72
     1
  1
\fArial;C
 73
     2
 44
0.9638554216867471
  0
LINE
  5
1BE
330
1F
100
AcDbEntity
  8
FRAME 070
100
AcDbLine
 10
596.1644045029425
 20
-484.7307745651897
 30
0.0
 11
596.1644045029425
 21
315.2692254348103
 31
0.0
  0
LINE
  5
1BF
330
1F
100
AcDbEntity
  8
FRAME 050
100
AcDbLine
 10
165.6644045029425
 20
-489.7307745651897
 30
0.0
 11
165.6644045029425
 21
-484.7307745651897
 31
0.0
  0
LINE
  5
1C0
330
1F
100
AcDbEntity
  8
FRAME 050
100
AcDbLine
 10
22.16440450294255
 20
-487.2307745651897
 30
0.0
 11
19.66440450294255
 21
-482.2307745651897
 31
0.0
  0
MTEXT
  5
1C1
330
1F
100
AcDbEntity
  8
FRAME 050
100
AcDbMText
 10
-555.9355954970574
 20
-457.7307745651897
 30
0.0
 40
4.0
 41
6.987951807228916
 71
     1
 72
     1
  1
\fArial;P
 73
     2
 44
0.9638554216867471
  0
LINE
  5
1C2
330
1F
100
AcDbEntity
  8
FRAME 050
100
AcDbLine
 10
-193.0855954970575
 20
-489.7307745651897
 30
0.0
 11
-193.0855954970575
 21
-484.7307745651897
 31
0.0
  0
MTEXT
  5
1C3
330
1F
100
AcDbEntity
  8
FRAME 050
100
AcDbMText
 10
-230.4434382095321
 20
-485.147931852715
 30
0.0
 40
4.0
 41
6.626506024096386
 71
     1
 72
     1
  1
\fArial;5
 73
     2
 44
0.9638554216867471
  0
MTEXT
  5
1C4
330
1F
100
AcDbEntity
  8
FRAME 050
100
AcDbMText
 10
557.7901919045171
 20
-485.3205383447172
 30
0.0
 40
4.0
 41
9.349397590361445
 71
     1
 72
     1
  1
\fArial;16
 73
     2
 44
0.9638554216867471
  0
LINE
  5
1C5
330
1F
100
AcDbEntity
  8
FRAME 070
100
AcDbLine
 10
-551.8355954970575
 20
315.2692254348103
 30
0.0
 11
-551.8355954970575
 21
-484.7307745651897
 31
0.0
  0
LINE
  5
1C6
330
1F
100
AcDbEntity
  8
FRAME 070
100
AcDbLine
 10
596.1644045029425
 20
315.2692254348103
 30
0.0
 11
-551.8355954970575
 21
315.2692254348103
 31
0.0
  0
LINE
  5
1C7
330
1F
100
AcDbEntity
  8
FRAME 070
100
AcDbLine
 10
-551.8355954970575
 20
-484.7307745651897
 30
0.0
 11
596.1644045029425
 21
-484.7307745651897
 31
0.0
  0
LINE
  5
1C8
330
1F
100
AcDbEntity
  8
FRAME 050
100
AcDbLine
 10
-27.83559549705745
 20
-489.7307745651897
 30
0.0
 11
72.16440450294255
 21
-489.7307745651897
 31
0.0
  0
LINE
  5
1C9
330
1F
100
AcDbEntity
  8
FRAME 070
100
AcDbLine
 10
22.16440450294255
 20
-489.7307745651897
 30
0.0
 11
601.1644045029425
 21
-489.7307745651897
 31
0.0
  0
LINE
  5
1CA
330
1F
100
AcDbEntity
  8
FRAME 070
100
AcDbLine
 10
-556.835595497058
 20
-84.73077456518968
 30
0.0
 11
-556.8355954970575
 21
-489.7307745651897
 31
0.0
  0
LINE
  5
1CB
330
1F
100
AcDbEntity
  8
FRAME 070
100
AcDbLine
 10
22.16440450294255
 20
-489.7307745651897
 30
0.0
 11
-556.8355954970575
 21
-489.7307745651897
 31
0.0
  0
LINE
  5
1CC
330
1F
100
AcDbEntity
  8
FRAME 070
100
AcDbLine
 10
22.16440450294255
 20
320.2692254348103
 30
0.0
 11
-556.8355954970575
 21
320.2692254348103
 31
0.0
  0
LINE
  5
1CD
330
1F
100
AcDbEntity
  8
FRAME 070
100
AcDbLine
 10
-556.835595497058
 20
-84.73077456518968
 30
0.0
 11
-556.8355954970575
 21
320.2692254348103
 31
0.0
  0
LINE
  5
1CE
330
1F
100
AcDbEntity
  8
FRAME 070
100
AcDbLine
 10
22.16440450294255
 20
320.2692254348103
 30
0.0
 11
601.1644045029425
 21
320.2692254348103
 31
0.0
  0
LINE
  5
1CF
330
1F
100
AcDbEntity
  8
FRAME 070
100
AcDbLine
 10
601.164404502943
 20
-84.73077456518968
 30
0.0
 11
601.1644045029425
 21
320.2692254348103
 31
0.0
  0
LINE
  5
1D0
330
1F
100
AcDbEntity
  8
FRAME 050
100
AcDbLine
 10
524.4144045029425
 20
-489.7307745651897
 30
0.0
 11
524.4144045029425
 21
-484.7307745651897
 31
0.0
  0
MTEXT
  5
1D1
330
1F
100
AcDbEntity
  8
FRAME 050
100
AcDbMText
 10
414.1894045029426
 20
-485.2307745651897
 30
0.0
 40
4.0
 41
9.349397590361445
 71
     1
 72
     1
  1
\fArial;14
 73
     2
 44
0.9638554216867471
  0
MTEXT
  5
1D2
330
1F
100
AcDbEntity
  8
FRAME 050
100
AcDbMText
 10
342.5565617904682
 20
-485.147931852715
 30
0.0
 40
4.0
 41
9.349397590361445
 71
     1
 72
     1
  1
\fArial;13
 73
     2
 44
0.9638554216867471
  0
MTEXT
  5
1D3
330
1F
100
AcDbEntity
  8
FRAME 050
100
AcDbMText
 10
414.1894045029426
 20
319.7692254348103
 30
0.0
 40
4.0
 41
9.349397590361445
 71
     1
 72
     1
  1
\fArial;14
 73
     2
 44
0.9638554216867471
  0
MTEXT
  5
1D4
330
1F
100
AcDbEntity
  8
FRAME 050
100
AcDbMText
 10
486.0565617904682
 20
-485.147931852715
 30
0.0
 40
4.0
 41
9.349397590361445
 71
     1
 72
     1
  1
\fArial;15
 73
     2
 44
0.9638554216867471
  0
MTEXT
  5
1D5
330
1F
100
AcDbEntity
  8
FRAME 050
100
AcDbMText
 10
56.57207159642491
 20
319.8654080178911
 30
0.0
 40
4.0
 41
6.626506024096386
 71
     1
 72
     1
  1
\fArial;9
 73
     2
 44
0.9638554216867471
  0
LINE
  5
1D6
330
1F
100
AcDbEntity
  8
FRAME 050
100
AcDbLine
 10
237.4144045029425
 20
-489.7307745651897
 30
0.0
 11
237.4144045029425
 21
-484.7307745651897
 31
0.0
  0
LINE
  5
1D7
330
1F
100
AcDbEntity
  8
FRAME 050
100
AcDbLine
 10
-336.5855954970575
 20
-489.7307745651897
 30
0.0
 11
-336.5855954970575
 21
-484.7307745651897
 31
0.0
  0
MTEXT
  5
1D8
330
1F
100
AcDbEntity
  8
FRAME 050
100
AcDbMText
 10
597.0644045029426
 20
-407.7307745651897
 30
0.0
 40
4.0
 41
7.80722891566265
 71
     1
 72
     1
  1
\fArial;O
 73
     2
 44
0.9638554216867471
  0
MTEXT
  5
1D9
330
1F
100
AcDbEntity
  8
FRAME 050
100
AcDbMText
 10
270.7692863927064
 20
-485.3311682659771
 30
0.0
 40
4.0
 41
9.27710843373494
 71
     1
 72
     1
  1
\fArial;12
 73
     2
 44
0.9638554216867471
  0
LINE
  5
1DA
330
1F
100
AcDbEntity
  8
FRAME 050
100
AcDbLine
 10
-264.8355954970575
 20
-489.7307745651897
 30
0.0
 11
-264.8355954970575
 21
-484.7307745651897
 31
0.0
  0
LINE
  5
1DB
330
1F
100
AcDbEntity
  8
FRAME 050
100
AcDbLine
 10
309.1644045029425
 20
-489.7307745651897
 30
0.0
 11
309.1644045029425
 21
-484.7307745651897
 31
0.0
  0
MTEXT
  5
1DC
330
1F
100
AcDbEntity
  8
FRAME 050
100
AcDbMText
 10
-302.3105954970574
 20
-485.2307745651897
 30
0.0
 40
4.0
 41
6.795180722891566
 71
     1
 72
     1
  1
\fArial;4
 73
     2
 44
0.9638554216867471
  0
LINE
  5
1DD
330
1F
100
AcDbEntity
  8
FRAME 050
100
AcDbLine
 10
452.6644045029425
 20
-489.7307745651897
 30
0.0
 11
452.6644045029425
 21
-484.7307745651897
 31
0.0
  0
LINE
  5
1DE
330
1F
100
AcDbEntity
  8
FRAME 050
100
AcDbLine
 10
22.16440450294255
 20
310.2692254348103
 30
0.0
 11
22.16440450294255
 21
320.2692254348103
 31
0.0
  0
LINE
  5
1DF
330
1F
100
AcDbEntity
  8
FRAME 070
100
AcDbLine
 10
601.164404502943
 20
-84.73077456518968
 30
0.0
 11
601.1644045029425
 21
-489.7307745651897
 31
0.0
  0
LINE
  5
1E0
330
1F
100
AcDbEntity
  8
FRAME 050
100
AcDbLine
 10
93.91440450294255
 20
315.2692254348103
 30
0.0
 11
93.91440450294255
 21
320.2692254348103
 31
0.0
  0
LINE
  5
1E1
330
1F
100
AcDbEntity
  8
FRAME 050
100
AcDbLine
 10
596.1644045029425
 20
-434.7307745651897
 30
0.0
 11
601.1644045029425
 21
-434.7307745651897
 31
0.0
  0
LINE
  5
1E2
330
1F
100
AcDbEntity
  8
FRAME 050
100
AcDbLine
 10
380.9144045029425
 20
-489.7307745651897
 30
0.0
 11
380.9144045029425
 21
-484.7307745651897
 31
0.0
  0
LINE
  5
1E3
330
1F
100
AcDbEntity
  8
FRAME 050
100
AcDbLine
 10
380.9144045029425
 20
315.2692254348103
 30
0.0
 11
380.9144045029425
 21
320.2692254348103
 31
0.0
  0
MTEXT
  5
1E4
330
1F
100
AcDbEntity
  8
FRAME 050
100
AcDbMText
 10
597.0644045029426
 20
-457.7307745651897
 30
0.0
 40
4.0
 41
6.987951807228916
 71
     1
 72
     1
  1
\fArial;P
 73
     2
 44
0.9638554216867471
  0
DIMENSION
  5
1E5
330
1F
100
AcDbEntity
  8
LAYER 02
100
AcDbDimension
  2
*D2
 10
-371.074551121872
 20
-125.0152515509431
 30
0.0
 11
-356.9265511218721
 21
-117.0152515509431
 31
0.0
 70
    32
  1
<>
 71
     5
 42
25.41500909563467
  3
DIMENSION STYLE 01
100
AcDbAlignedDimension
 13
-342.3438666014786
 23
-150.4302606465778
 33
0.0
 14
-342.730584604567
 24
-125.0152515509431
 34
0.0
 50
90.0
100
AcDbRotatedDimension
  0
DIMENSION
  5
1F4
330
1F
100
AcDbEntity
  8
LAYER 02
100
AcDbDimension
  2
*D3
 10
-7.635655753284272
 20
-118.6219308406293
 30
0.0
 11
-23.27460042243648
 21
-110.7620908935613
 31
0.0
 70
    33
  1
<>
 71
     5
 42
24.71478354871103
  3
DIMENSION STYLE 01
100
AcDbAlignedDimension
 13
-32.35774794551665
 23
-148.4670093070796
 33
0.0
 14
-36.96379479316681
 24
-124.1852289296673
 34
0.0
  0
DIMENSION
  5
203
330
1F
100
AcDbEntity
  8
LAYER 02
100
AcDbDimension
  2
*D4
 10
-41.52766394179072
 20
-92.45995930979814
 30
0.0
 11
-196.6282205909161
 21
-141.1216950313407
 31
0.0
 70
    33
  1
<>
 71
     5
 42
325.1101179373033
  3
DIMENSION STYLE 01
100
AcDbAlignedDimension
 13
-342.2923284023246
 23
-219.8604192905725
 33
0.0
 14
-32.09121510407374
 24
-122.5369478474873
 34
0.0
  0
DIMENSION
  5
211
330
1F
100
AcDbEntity
  8
LAYER 02
100
AcDbDimension
  2
*D5
 10
446.1404387714246
 20
-50.37098034779132
 30
0.0
 11
401.7474426774649
 21
-50.37098034779132
 31
0.0
 70
    32
  1
<>
 71
     5
 42
88.78599218791942
  3
DIMENSION STYLE 01
100
AcDbAlignedDimension
 13
357.3544465835052
 23
-125.0152515509446
 33
0.0
 14
446.1404387714246
 24
-91.33259227708692
 34
0.0
100
AcDbRotatedDimension
  0
DIMENSION
  5
21F
330
1F
100
AcDbEntity
  8
LAYER 02
100
AcDbDimension
  2
*D6
 10
357.4117459859426
 20
-305.8275055179738
 30
0.0
 11
182.4764588949936
 21
-305.8275055179738
 31
0.0
 70
    32
  1
<>
 71
     5
 42
349.8705741818981
  3
DIMENSION STYLE 01
100
AcDbAlignedDimension
 13
7.541171804044524
 23
-110.5093686178877
 33
0.0
 14
357.4117459859426
 24
-220.0628677262035
 34
0.0
100
AcDbRotatedDimension
  0
DIMENSION
  5
22D
330
1F
100
AcDbEntity
  8
LAYER 02
100
AcDbDimension
  2
*D7
 10
459.3122626987983
 20
-91.33259227708692
 30
0.0
 11
459.3122626987983
 21
-108.173921914015
 31
0.0
 70
    32
  1
<>
 71
     5
 42
33.68265927385619
  3
DIMENSION STYLE 01
100
AcDbAlignedDimension
 13
357.3544465835061
 23
-125.0152515509431
 33
0.0
 14
446.1404387714246
 24
-91.33259227708692
 34
0.0
 50
90.0
100
AcDbRotatedDimension
  0
DIMENSION
  5
23B
330
1F
100
AcDbEntity
  8
LAYER 02
100
AcDbDimension
  2
*D8
 10
357.3650436577208
 20
-344.7484920557711
 30
0.0
 11
-18.04096736580647
 21
-344.7484920557711
 31
0.0
 70
   160
  1
<>
 71
     5
 42
699.7039934698691
  3
DIMENSION STYLE 01
100
AcDbAlignedDimension
 13
-342.3389498121483
 23
-172.2929923748167
 33
0.0
 14
357.3650436577208
 24
-172.1356333964408
 34
0.0
100
AcDbRotatedDimension
  0
DIMENSION
  5
249
330
1F
100
AcDbEntity
  8
LAYER 02
100
AcDbDimension
  2
*D9
 10
148.4905511727456
 20
-220.0628677262046
 30
0.0
 11
148.4905511727456
 21
-11.56521500609566
 31
0.0
 70
    32
  1
<>
 71
     5
 42
416.9953054402179
  3
DIMENSION STYLE 01
100
AcDbAlignedDimension
 13
219.2843920432833
 23
196.9324377140132
 33
0.0
 14
357.4117459859439
 24
-220.0628677262046
 34
0.0
 50
90.0
100
AcDbRotatedDimension
  0
DIMENSION
  5
257
330
1F
100
AcDbEntity
  8
LAYER 02
100
AcDbDimension
  2
*D10
 10
424.5415952954344
 20
-292.9650497401893
 30
0.0
 11
390.9766706406892
 21
-292.9650497401893
 31
0.0
 70
    32
  1
<>
 71
     5
 42
67.12984930949051
  3
DIMENSION STYLE 01
100
AcDbAlignedDimension
 13
357.4117459859439
 23
-220.062867726204
 33
0.0
 14
424.5415952954344
 24
-219.9299624262354
 34
0.0
100
AcDbRotatedDimension
  0
DIMENSION
  5
265
330
1F
100
AcDbEntity
  8
LAYER 02
100
AcDbDimension
  2
*D11
 10
35.26583256076562
 20
-119.190674854012
 30
0.0
 11
51.95638463033544
 21
-111.5561964302639
 31
0.0
 70
    33
  1
<>
 71
     5
 42
24.32135693782941
  3
DIMENSION STYLE 01
100
AcDbAlignedDimension
 13
47.44501335273159
 23
-148.4900989842484
 33
0.0
 14
54.71269712304093
 24
-125.2799896369815
 34
0.0
  0
DIMENSION
  5
274
330
1F
100
AcDbEntity
  8
LAYER 02
100
AcDbDimension
  2
*D12
 10
337.7119775642706
 20
-298.2577328192378
 30
0.0
 11
182.5889025654251
 21
-246.7905823348902
 31
0.0
 70
    33
  1
<>
 71
     5
 42
326.8763434455049
  3
DIMENSION STYLE 01
100
AcDbAlignedDimension
 13
47.30591540438215
 23
-135.5249894521605
 33
0.0
 14
357.5520654020731
 24
-238.4592904208557
 34
0.0
  0
DIMENSION
  5
282
330
1F
100
AcDbEntity
  8
LAYER 02
100
AcDbDimension
  2
*D13
 10
446.1404387714246
 20
-393.2006689311381
 30
0.0
 11
-18.24208329912295
 21
-393.2006689311381
 31
0.0
 70
   160
  1
<>
 71
     5
 42
877.6570155639097
  3
DIMENSION STYLE 01
100
AcDbAlignedDimension
 13
-431.5165767924851
 23
-91.33259227708692
 33
0.0
 14
446.1404387714246
 24
-91.33259227708692
 34
0.0
100
AcDbRotatedDimension
  0
DIMENSION
  5
290
330
1F
100
AcDbEntity
  8
LAYER 02
100
AcDbDimension
  2
*D14
 10
424.5415952954344
 20
-368.5272718179199
 30
0.0
 11
-18.16639749888196
 21
-368.5272718179199
 31
0.0
 70
   160
  1
<>
 71
     5
 42
834.3079570114464
  3
DIMENSION STYLE 01
100
AcDbAlignedDimension
 13
-409.766361716012
 23
-220.1175929800026
 33
0.0
 14
424.5415952954344
 24
-219.9299624262358
 34
0.0
100
AcDbRotatedDimension
  0
DIMENSION
  5
29E
330
1F
100
AcDbEntity
  8
LAYER 02
100
AcDbDimension
  2
*D15
 10
-481.3495922786356
 20
-91.33259227708672
 30
0.0
 11
-481.3495922786356
 21
-155.552886955704
 31
0.0
 70
    32
  1
<>
 71
     5
 42
128.4405893572346
  3
DIMENSION STYLE 01
100
AcDbAlignedDimension
 13
-342.3282718195333
 23
-219.7731816343214
 33
0.0
 14
-431.5165767924851
 24
-91.33259227708672
 34
0.0
 50
90.0
100
AcDbRotatedDimension
  0
DIMENSION
  5
2AC
330
1F
100
AcDbEntity
  8
LAYER 02
100
AcDbDimension
  2
*D16
 10
-65.33073869716549
 20
130.8546054279104
 30
0.0
 11
-225.569893595201
 21
40.39057269856097
 31
0.0
 70
    33
  1
<>
 71
     5
 42
368.0235208792689
  3
DIMENSION STYLE 01
100
AcDbAlignedDimension
 13
-331.442494181863
 23
-146.3730661254691
 33
0.0
 14
-10.96418438579195
 24
34.55499933322986
 34
0.0
  0
DIMENSION
  5
2BA
330
1F
100
AcDbEntity
  8
LAYER 02
100
AcDbDimension
  2
*D17
 10
56.13037956475452
 20
-110.1968812969985
 30
0.0
 11
56.13037956475453
 21
3.159880514439749
 31
0.0
 70
    32
  1
<>
 71
     5
 42
226.7135236228764
  3
DIMENSION STYLE 01
100
AcDbAlignedDimension
 13
7.311930989470028
 23
116.516642325878
 33
0.0
 14
7.362917419152808
 24
-110.1968812969985
 34
0.0
 50
90.0
100
AcDbRotatedDimension
  0
DIMENSION
  5
2C8
330
1F
100
AcDbEntity
  8
LAYER 02
100
AcDbDimension
  2
*D18
 10
208.963788594206
 20
224.1370895128735
 30
0.0
 11
102.9775580672921
 21
183.9291918188245
 31
0.0
 70
    33
  1
<>
 71
     5
 42
226.713529356139
  3
DIMENSION STYLE 01
100
AcDbAlignedDimension
 13
7.311930989470028
 23
116.516642325878
 33
0.0
 14
219.2843920432977
 24
196.932437713976
 34
0.0
  0
DIMENSION
  5
2D6
330
1F
100
AcDbEntity
  8
LAYER 02
100
AcDbDimension
  2
*D19
 10
-6.817129458060691
 20
116.516642325878
 30
0.0
 11
-6.817129458060693
 21
80.73460695802686
 31
0.0
 70
    32
  1
<>
 71
     5
 42
71.56407073570222
  3
DIMENSION STYLE 01
100
AcDbAlignedDimension
 13
7.383854757969829
 23
44.95257159017575
 33
0.0
 14
7.311930989469573
 24
116.516642325878
 34
0.0
 50
90.0
100
AcDbRotatedDimension
  0
LINE
  5
2E4
330
1F
100
AcDbEntity
  8
LAYER 01
100
AcDbLine
 10
8.123045364537788
 20
-20.77934472039357
 30
0.0
 11
5.8455017190647
 21
-18.51098159506756
 31
0.0
  0
LINE
  5
2E5
330
1F
100
AcDbEntity
  8
LAYER 01
100
AcDbLine
 10
8.133040945148863
 20
-25.7288439702798
 30
0.0
 11
0.8960024691784696
 21
-18.52097717567841
 31
0.0
  0
DIMENSION
  5
2E6
330
1F
100
AcDbEntity
  8
LAYER 02
100
AcDbDimension
  2
*D20
 10
-42.72067565756245
 20
116.516642325878
 30
0.0
 11
-42.72067565756245
 21
48.96018498682787
 31
0.0
 70
    32
  1
<>
 71
     5
 42
135.1129146781002
  3
DIMENSION STYLE 01
100
AcDbAlignedDimension
 13
-28.75066418329973
 23
-18.59627235222223
 33
0.0
 14
7.311930989470028
 24
116.516642325878
 34
0.0
 50
90.0
100
AcDbRotatedDimension
  0
DIMENSION
  5
2F4
330
1F
100
AcDbEntity
  8
LAYER 02
100
AcDbDimension
  2
*D21
 10
512.33552448731
 20
-39.36618084779116
 30
0.0
 11
399.0380479957028
 21
104.7397828801048
 31
0.0
 70
    33
  1
<>
 71
     5
 42
366.6215867147594
  3
DIMENSION STYLE 01
100
AcDbAlignedDimension
 13
219.639800999545
 23
196.876693429484
 33
0.0
 14
446.2347539827595
 24
-91.33523402630794
 34
0.0
  0
DIMENSION
  5
302
330
1F
100
AcDbEntity
  8
LAYER 02
100
AcDbDimension
  2
*D22
 10
440.9010194266845
 20
-77.52171584866616
 30
0.0
 11
396.5080233327185
 21
-94.36304548557499
 31
0.0
 70
    33
  1
<>
 71
     5
 42
94.96038092042181
  3
DIMENSION STYLE 01
100
AcDbAlignedDimension
 13
357.3544465835061
 23
-125.0152515509431
 33
0.0
 14
446.1404387714381
 24
-91.33259227712547
 34
0.0
  0
POLYLINE
  5
311
330
1F
100
AcDbEntity
  8
LAYER 05
100
AcDb2dPolyline
 66
     1
 10
0.0
 20
0.0
 30
0.0
  0
VERTEX
  5
313
330
311
100
AcDbEntity
  8
LAYER 05
100
AcDbVertex
100
AcDb2dVertex
 10
-331.8268221849307
 20
-145.8868104021533
 30
0.0
  0
VERTEX
  5
314
330
311
100
AcDbEntity
  8
LAYER 05
100
AcDbVertex
100
AcDb2dVertex
 10
-10.14484741680282
 20
33.16968024268243
 30
0.0
  0
VERTEX
  5
315
330
311
100
AcDbEntity
  8
LAYER 05
100
AcDbVertex
100
AcDb2dVertex
 10
-10.94594211584378
 20
34.60887813959033
 30
0.0
  0
VERTEX
  5
316
330
311
100
AcDbEntity
  8
LAYER 05
100
AcDbVertex
100
AcDb2dVertex
 10
-332.6279168839719
 20
-144.4476125052454
 30
0.0
  0
VERTEX
  5
317
330
311
100
AcDbEntity
  8
LAYER 05
100
AcDbVertex
100
AcDb2dVertex
 10
-331.8268221849307
 20
-145.8868104021533
 30
0.0
  0
SEQEND
  5
312
330
311
100
AcDbEntity
  8
LAYER 05
  0
LINE
  5
318
330
1F
100
AcDbEntity
  8
LAYER 05
100
AcDbLine
 10
-357.3418124366024
 20
-158.865523906042
 30
0.0
 11
-356.4132044322807
 21
-160.5276963582974
 31
0.0
  0
LINE
  5
319
330
1F
100
AcDbEntity
  8
DEFAULT
100
AcDbLine
 10
357.6391520461907
 20
-125.0500266000809
 30
0.0
 11
446.4585440971865
 21
-91.35469645123504
 31
0.0
  0
LINE
  5
31A
330
1F
100
AcDbEntity
  8
LAYER 01
100
AcDbLine
 10
8.741564212064063
 20
-18.50244995320469
 30
0.0
 11
8.114513722675824
 21
-17.88328222739284
 31
0.0
  0
LINE
  5
31B
330
1F
100
AcDbEntity
  8
LAYER 01
100
AcDbLine
 10
8.12970908494593
 20
-24.07901088698424
 30
0.0
 11
2.545835552474259
 21
-18.5176453154757
 31
0.0
  0
LINE
  5
31C
330
1F
100
AcDbEntity
  8
LAYER 01
100
AcDbLine
 10
13.69097454302344
 20
-18.47114321171722
 30
0.0
 11
8.083206981189718
 21
-12.93387189643573
 31
0.0
  0
LINE
  5
31D
330
1F
100
AcDbEntity
  8
DEFAULT
100
AcDbLine
 10
-342.2708188099743
 20
-219.9308735672313
 30
0.0
 11
-335.9958040984015
 21
-256.7392941818804
 31
0.0
  0
LINE
  5
31E
330
1F
100
AcDbEntity
  8
DEFAULT
100
AcDbLine
 10
-335.9958040984015
 20
-256.7392941818804
 30
0.0
 11
-32.21964595402279
 21
-148.5106065262312
 31
0.0
  0
LINE
  5
31F
330
1F
100
AcDbEntity
  8
DEFAULT
100
AcDbLine
 10
-32.21964595402279
 20
-148.5106065262312
 30
0.0
 11
-31.95301283923324
 21
-122.5707905984924
 31
0.0
  0
LINE
  5
320
330
1F
100
AcDbEntity
  8
DEFAULT
100
AcDbLine
 10
357.6964730037407
 20
-220.1333981607133
 30
0.0
 11
7.694283135801456
 21
-110.5386867870396
 31
0.0
  0
LINE
  5
321
330
1F
100
AcDbEntity
  8
DEFAULT
100
AcDbLine
 10
7.694283135801456
 20
-110.5386867870396
 30
0.0
 11
357.6964730037421
 21
-220.1333981607119
 31
0.0
  0
LINE
  5
322
330
1F
100
AcDbEntity
  8
DEFAULT
100
AcDbLine
 10
357.6964730037421
 20
-220.1333981607119
 30
0.0
 11
351.4380134360495
 21
-256.9381924105098
 31
0.0
  0
LINE
  5
323
330
1F
100
AcDbEntity
  8
DEFAULT
100
AcDbLine
 10
351.4380134360495
 20
-256.9381924105098
 30
0.0
 11
47.61313586824872
 21
-148.5337048936461
 31
0.0
  0
LINE
  5
324
330
1F
100
AcDbEntity
  8
DEFAULT
100
AcDbLine
 10
47.61313586824872
 20
-148.5337048936461
 30
0.0
 11
47.33483531872389
 21
-122.5937312978706
 31
0.0
  0
LINE
  5
325
330
1F
100
AcDbEntity
  8
LAYER 01
100
AcDbLine
 10
3.570876764532372
 20
-26.12461331642368
 30
0.0
 11
0.5186629805198066
 21
-23.08470266003411
 31
0.0
  0
LINE
  5
326
330
1F
100
AcDbEntity
  8
LAYER 01
100
AcDbLine
 10
8.11971350433349
 20
-19.12951163709801
 30
0.0
 11
7.495334771386055
 21
-18.50751200615542
 31
0.0
  0
LINE
  5
327
330
1F
100
AcDbEntity
  8
LAYER 01
100
AcDbLine
 10
7.495334771386055
 20
-18.50751200615542
 30
0.0
 11
80.13268187078779
 21
-18.52839075831918
 31
0.0
  0
LINE
  5
328
330
1F
100
AcDbEntity
  8
DEFAULT
100
AcDbLine
 10
-204.5872456018099
 20
197.0187742104546
 30
0.0
 11
7.464956084517766
 21
116.5727276927316
 31
0.0
  0
LINE
  5
329
330
1F
100
AcDbEntity
  8
DEFAULT
100
AcDbLine
 10
7.464956084517766
 20
116.5727276927316
 30
0.0
 11
7.51596169447474
 21
-110.2260819134443
 31
0.0
  0
LINE
  5
32A
330
1F
100
AcDbEntity
  8
LAYER 01
100
AcDbLine
 10
16.99058143032924
 20
-18.45027205072739
 30
0.0
 11
8.062335820199209
 21
-9.634265009129024
 31
0.0
  0
LINE
  5
32B
330
1F
100
AcDbEntity
  8
LAYER 01
100
AcDbLine
 10
16.78529697687348
 20
-16.6080692140618
 30
0.0
 11
9.906988136812728
 21
-9.816228821647258
 31
0.0
  0
LINE
  5
32C
330
1F
100
AcDbEntity
  8
LAYER 01
100
AcDbLine
 10
10.39136765571696
 20
-18.49201437270864
 30
0.0
 11
8.104078142179773
 21
-16.23347878374062
 31
0.0
  0
LINE
  5
32D
330
1F
100
AcDbEntity
  8
DEFAULT
100
AcDbLine
 10
-431.6229826192468
 20
-91.35733919432306
 30
0.0
 11
-204.9427882572083
 21
196.9630089558215
 31
0.0
  0
DIMENSION
  5
32E
330
1F
100
AcDbEntity
  8
LAYER 02
100
AcDbDimension
  2
*D23
 10
384.5668854301076
 20
-224.6804548022979
 30
0.0
 11
381.4388323695439
 21
-243.0759318444314
 31
0.0
 70
    33
  1
<>
 71
     5
 42
37.31907241919938
  3
DIMENSION STYLE 01
100
AcDbAlignedDimension
 13
351.1556398648108
 23
-256.8538218104692
 33
0.0
 14
357.4117459859382
 24
-220.0628677262023
 34
0.0
  0
LINE
  5
33C
330
1F
100
AcDbEntity
  8
DEFAULT
100
AcDbLine
 10
-342.7092398771551
 20
-125.0500266000809
 30
0.0
 11
-431.5286319281511
 21
-91.35469645123504
 31
0.0
  0
LINE
  5
33D
330
1F
100
AcDbEntity
  8
LAYER 01
100
AcDbLine
 10
8.126377224741404
 20
-22.42917780368936
 30
0.0
 11
4.19566863576982
 21
-18.51431345527118
 31
0.0
  0
LINE
  5
33E
330
1F
100
AcDbEntity
  8
LAYER 01
100
AcDbLine
 10
6.292521076926718
 20
-27.18877233580457
 30
0.0
 11
-0.5564801087835036
 21
-20.36737869715381
 31
0.0
  0
POLYLINE
  5
33F
330
1F
100
AcDbEntity
  8
LAYER 05
100
AcDb2dPolyline
 66
     1
 10
0.0
 20
0.0
 30
0.0
  0
VERTEX
  5
341
330
33F
100
AcDbEntity
  8
LAYER 05
100
AcDbVertex
100
AcDb2dVertex
 10
346.8747509891987
 20
-145.7341747345345
 30
0.0
  0
VERTEX
  5
342
330
33F
100
AcDbEntity
  8
LAYER 05
100
AcDbVertex
100
AcDb2dVertex
 10
25.11227143257678
 20
33.17760934449478
 30
0.0
  0
VERTEX
  5
343
330
33F
100
AcDbEntity
  8
LAYER 05
100
AcDbVertex
100
AcDb2dVertex
 10
25.91271871770731
 20
34.61716741800996
 30
0.0
  0
VERTEX
  5
344
330
33F
100
AcDbEntity
  8
LAYER 05
100
AcDbVertex
100
AcDb2dVertex
 10
347.6751982743294
 20
-144.2946166610193
 30
0.0
  0
VERTEX
  5
345
330
33F
100
AcDbEntity
  8
LAYER 05
100
AcDbVertex
100
AcDb2dVertex
 10
346.8747509891987
 20
-145.7341747345345
 30
0.0
  0
SEQEND
  5
340
330
33F
100
AcDbEntity
  8
LAYER 05
  0
DIMENSION
  5
346
330
1F
100
AcDbEntity
  8
LAYER 02
100
AcDbDimension
  2
*D24
 10
375.3150251483328
 20
-98.98570323152722
 30
0.0
 11
200.293767351394
 21
21.7802437069994
 31
0.0
 70
    33
  1
<>
 71
     5
 42
425.2851025878124
  3
DIMENSION STYLE 01
100
AcDbAlignedDimension
 13
7.311930989470028
 23
116.516642325878
 33
0.0
 14
357.3544465833477
 24
-125.0152515511753
 34
0.0
  0
DIMENSION
  5
354
330
1F
100
AcDbEntity
  8
LAYER 02
100
AcDbDimension
  2
*D25
 10
219.2843920432833
 20
236.5359775677293
 30
0.0
 11
113.2981615163767
 21
236.5359775677293
 31
0.0
 70
    32
  1
<>
 71
     5
 42
211.9724610538132
  3
DIMENSION STYLE 01
100
AcDbAlignedDimension
 13
7.311930989470028
 23
116.516642325878
 33
0.0
 14
219.2843920432833
 24
196.9324377140132
 34
0.0
100
AcDbRotatedDimension
  0
DIMENSION
  5
362
330
1F
100
AcDbEntity
  8
LAYER 02
100
AcDbDimension
  2
*D26
 10
458.2623098781368
 20
-125.0152515509446
 30
0.0
 11
458.2623098781368
 21
-172.4954408104497
 31
0.0
 70
    32
  1
<>
 71
     5
 42
94.96037851901016
  3
DIMENSION STYLE 01
100
AcDbAlignedDimension
 13
357.3758025687352
 23
-219.9756300699548
 33
0.0
 14
357.3544465835052
 24
-125.0152515509446
 34
0.0
 50
90.0
100
AcDbRotatedDimension
  0
LINE
  5
370
330
1F
100
AcDbEntity
  8
LAYER 01
100
AcDbLine
 10
12.04117109936986
 20
-18.48157879221395
 30
0.0
 11
8.093642561685087
 21
-14.58367534008772
 31
0.0
  0
CIRCLE
  5
371
330
1F
100
AcDbEntity
  8
LAYER 01
100
AcDbCircle
 10
8.118455104463905
 20
-18.50639133499391
 30
0.0
 40
8.872303811082924
  0
DIMENSION
  5
372
330
1F
100
AcDbEntity
  8
LAYER 02
100
AcDbDimension
  2
*D27
 10
-409.766361716012
 20
-278.066493040689
 30
0.0
 11
-395.574361716012
 21
-278.066493040689
 31
0.0
 70
    32
  1
<>
 71
     5
 42
21.75021507647307
  3
DIMENSION STYLE 01
100
AcDbAlignedDimension
 13
-431.5165767924851
 23
-91.33259227708692
 33
0.0
 14
-409.766361716012
 24
-220.1175929800024
 34
0.0
100
AcDbRotatedDimension
  0
DIMENSION
  5
380
330
1F
100
AcDbEntity
  8
LAYER 02
100
AcDbDimension
  2
*D28
 10
-305.2289178654296
 20
-213.5419344911107
 30
0.0
 11
-302.0925903455308
 21
-231.9392240338066
 31
0.0
 70
    33
  1
<>
 71
     5
 42
37.32542365894112
  3
DIMENSION STYLE 01
100
AcDbAlignedDimension
 13
-336.0196733531916
 23
-256.6549983809688
 33
0.0
 14
-342.2923283929892
 24
-219.8604192955771
 34
0.0
  0
LINE
  5
38E
330
1F
100
AcDbEntity
  8
LAYER 01
100
AcDbLine
 10
7.707373025382125
 20
-18.50716017057567
 30
0.0
 11
-64.92978353912328
 21
-18.67486841344117
 31
0.0
  0
LINE
  5
38F
330
1F
100
AcDbEntity
  8
LAYER 01
100
AcDbLine
 10
15.34077798667566
 20
-18.46070763122344
 30
0.0
 11
8.072771400694577
 21
-11.28406845278283
 31
0.0
  0
LINE
  5
390
330
1F
100
AcDbEntity
  8
DEFAULT
100
AcDbLine
 10
446.5528947882822
 20
-91.35733919432306
 30
0.0
 11
219.8727004262437
 21
196.9630089558215
 31
0.0
  0
LINE
  5
391
330
1F
100
AcDbEntity
  8
LAYER 01
100
AcDbLine
 10
15.6984637652365
 20
-13.89539972593599
 30
0.0
 11
12.63318921160725
 21
-10.8686592856248
 31
0.0
  0
LINE
  5
392
330
1F
100
AcDbEntity
  8
LAYER 01
100
AcDbLine
 10
8.100537403575558
 20
-9.634105616411773
 30
0.0
 11
8.136372805353162
 21
-27.37867705357559
 31
0.0
  0
LINE
  5
393
330
1F
100
AcDbEntity
  8
LAYER 01
100
AcDbLine
 10
8.136372805353162
 20
-27.37867705357559
 30
0.0
 11
-0.7538306141177742
 21
-18.52430903588225
 31
0.0
  0
DIMENSION
  5
394
330
1F
100
AcDbEntity
  8
LAYER 02
100
AcDbDimension
  2
*D29
 10
7.541171804044495
 20
-414.4882627964415
 30
0.0
 11
-211.9877024942203
 21
-414.4882627964415
 31
0.0
 70
    32
  1
<>
 71
     5
 42
439.0577485965295
  3
DIMENSION STYLE 01
100
AcDbAlignedDimension
 13
-431.5165767924851
 23
-91.33259227708692
 33
0.0
 14
7.541171804044495
 24
-110.5093686178877
 34
0.0
100
AcDbRotatedDimension
  0
ENDSEC
  0
SECTION
  2
OBJECTS
  0
DICTIONARY
  5
C
330
0
100
AcDbDictionary
281
     1
  3
ACAD_GROUP
350
D
  3
ACAD_LAYOUT
350
1A
  3
ACAD_MLINESTYLE
350
17
  3
ACAD_PLOTSETTINGS
350
19
  3
ACAD_PLOTSTYLENAME
350
E
  0
DICTIONARY
  5
D
102
{ACAD_REACTORS
330
C
102
}
330
C
100
AcDbDictionary
281
     1
  0
DICTIONARY
  5
1A
102
{ACAD_REACTORS
330
C
102
}
330
C
100
AcDbDictionary
281
     1
  3
Layout1
350
1E
  3
Layout2
350
26
  3
Model
350
22
  0
DICTIONARY
  5
17
102
{ACAD_REACTORS
330
C
102
}
330
C
100
AcDbDictionary
281
     1
  3
Standard
350
18
  0
DICTIONARY
  5
19
102
{ACAD_REACTORS
330
C
102
}
330
C
100
AcDbDictionary
281
     1
  0
ACDBDICTIONARYWDFLT
  5
E
102
{ACAD_REACTORS
330
C
102
}
330
C
100
AcDbDictionary
281
     1
  3
Normal
350
F
100
AcDbDictionaryWithDefault
340
F
  0
LAYOUT
  5
1E
102
{ACAD_REACTORS
330
1A
102
}
330
1A
100
AcDbPlotSettings
  1

  2
none_device
  4

  6

 40
0.0
 41
0.0
 42
0.0
 43
0.0
 44
0.0
 45
0.0
 46
0.0
 47
0.0
 48
0.0
 49
0.0
140
0.0
141
0.0
142
1.0
143
1.0
 70
   688
 72
     0
 73
     0
 74
     5
  7

 75
    16
 76
     0
 77
     2
 78
   300
147
1.0
148
0.0
149
0.0
100
AcDbLayout
  1
Layout1
 70
     1
 71
     1
 10
0.0
 20
0.0
 11
12.0
 21
9.0
 12
0.0
 22
0.0
 32
0.0
 14
1.000000000000000E+20
 24
1.000000000000000E+20
 34
1.000000000000000E+20
 15
-1.000000000000000E+20
 25
-1.000000000000000E+20
 35
-1.000000000000000E+20
146
0.0
 13
0.0
 23
0.0
 33
0.0
 16
1.0
 26
0.0
 36
0.0
 17
0.0
 27
1.0
 37
0.0
 76
     0
330
1B
  0
LAYOUT
  5
26
102
{ACAD_REACTORS
330
1A
102
}
330
1A
100
AcDbPlotSettings
  1

  2
none_device
  4

  6

 40
0.0
 41
0.0
 42
0.0
 43
0.0
 44
0.0
 45
0.0
 46
0.0
 47
0.0
 48
0.0
 49
0.0
140
0.0
141
0.0
142
1.0
143
1.0
 70
   688
 72
     0
 73
     0
 74
     5
  7

 75
    16
 76
     0
 77
     2
 78
   300
147
1.0
148
0.0
149
0.0
100
AcDbLayout
  1
Layout2
 70
     1
 71
     2
 10
0.0
 20
0.0
 11
0.0
 21
0.0
 12
0.0
 22
0.0
 32
0.0
 14
0.0
 24
0.0
 34
0.0
 15
0.0
 25
0.0
 35
0.0
146
0.0
 13
0.0
 23
0.0
 33
0.0
 16
1.0
 26
0.0
 36
0.0
 17
0.0
 27
1.0
 37
0.0
 76
     0
330
23
  0
LAYOUT
  5
22
102
{ACAD_REACTORS
330
1A
102
}
330
1A
100
AcDbPlotSettings
  1

  2
none_device
  4

  6

 40
0.0
 41
0.0
 42
0.0
 43
0.0
 44
0.0
 45
0.0
 46
0.0
 47
0.0
 48
0.0
 49
0.0
140
0.0
141
0.0
142
1.0
143
1.0
 70
  1712
 72
     0
 73
     0
 74
     0
  7

 75
     0
 76
     0
 77
     2
 78
   300
147
1.0
148
0.0
149
0.0
100
AcDbLayout
  1
Model
 70
     1
 71
     0
 10
0.0
 20
0.0
 11
12.0
 21
9.0
 12
0.0
 22
0.0
 32
0.0
 14
-556.835595497058
 24
-490.6645015993104
 34
0.0
 15
604.8716334186053
 25
320.2692254348103
 35
0.0
146
0.0
 13
0.0
 23
0.0
 33
0.0
 16
1.0
 26
0.0
 36
0.0
 17
0.0
 27
1.0
 37
0.0
 76
     0
330
1F
  0
MLINESTYLE
  5
18
102
{ACAD_REACTORS
330
17
102
}
330
17
100
AcDbMlineStyle
  2
Standard
 70
     0
  3

 62
   256
 51
90.0
 52
90.0
 71
     2
 49
0.5
 62
   256
  6
BYLAYER
 49
-0.5
 62
   256
  6
BYLAYER
  0
ACDBPLACEHOLDER
  5
F
102
{ACAD_REACTORS
330
E
102
}
330
E
  0
ENDSEC
  0
EOF
