  0
SECTION
  2
HEADER
  9
$ACADVER
  1
AC1009
  9
$INSBASE
 10
0.0
 20
0.0
 30
0.0
  9
$EXTMIN
 10
-352.5227014270713
 20
-282.96294901451478
 30
0.0
  9
$EXTMAX
 10
977.6574815787942
 20
401.27743644063088
 30
140.5320807350918
  9
$LIMMIN
 10
0.0
 20
0.0
  9
$LIMMAX
 10
420.0
 20
297.0
  9
$ORTHOMODE
 70
     0
  9
$REGENMODE
 70
     1
  9
$FILLMODE
 70
     1
  9
$QTEXTMODE
 70
     0
  9
$MIRRTEXT
 70
     1
  9
$DRAGMODE
 70
     2
  9
$LTSCALE
 40
1.0
  9
$OSMODE
 70
    39
  9
$ATTMODE
 70
     1
  9
$TEXTSIZE
 40
2.5
  9
$TRACEWID
 40
1.0
  9
$TEXTSTYLE
  7
STANDARD
  9
$CLAYER
  8
0
  9
$CELTYPE
  6
BYLAYER
  9
$CECOLOR
 62
   256
  9
$DIMSCALE
 40
1.0
  9
$DIMASZ
 40
2.5
  9
$DIMEXO
 40
0.625
  9
$DIMDLI
 40
3.75
  9
$DIMRND
 40
0.0
  9
$DIMDLE
 40
0.0
  9
$DIMEXE
 40
1.25
  9
$DIMTP
 40
0.0
  9
$DIMTM
 40
0.0
  9
$DIMTXT
 40
2.5
  9
$DIMCEN
 40
2.5
  9
$DIMTSZ
 40
0.0
  9
$DIMTOL
 70
     0
  9
$DIMLIM
 70
     0
  9
$DIMTIH
 70
     0
  9
$DIMTOH
 70
     0
  9
$DIMSE1
 70
     0
  9
$DIMSE2
 70
     0
  9
$DIMTAD
 70
     1
  9
$DIMZIN
 70
     8
  9
$DIMBLK
  1

  9
$DIMASO
 70
     1
  9
$DIMSHO
 70
     1
  9
$DIMPOST
  1

  9
$DIMAPOST
  1

  9
$DIMALT
 70
     0
  9
$DIMALTD
 70
     3
  9
$DIMALTF
 40
0.03937007874016
  9
$DIMLFAC
 40
1.0
  9
$DIMTOFL
 70
     1
  9
$DIMTVP
 40
0.0
  9
$DIMTIX
 70
     0
  9
$DIMSOXD
 70
     0
  9
$DIMSAH
 70
     0
  9
$DIMBLK1
  1

  9
$DIMBLK2
  1

  9
$DIMSTYLE
  2
ISO-25
  9
$DIMCLRD
 70
     0
  9
$DIMCLRE
 70
     0
  9
$DIMCLRT
 70
     0
  9
$DIMTFAC
 40
1.0
  9
$DIMGAP
 40
0.625
  9
$LUNITS
 70
     2
  9
$LUPREC
 70
     4
  9
$SKETCHINC
 40
1.0
  9
$FILLETRAD
 40
10.0
  9
$AUNITS
 70
     0
  9
$AUPREC
 70
     0
  9
$MENU
  1
.
  9
$ELEVATION
 40
0.0
  9
$PELEVATION
 40
0.0
  9
$THICKNESS
 40
0.0
  9
$LIMCHECK
 70
     0
  9
$BLIPMODE
 70
     0
  9
$CHAMFERA
 40
10.0
  9
$CHAMFERB
 40
10.0
  9
$SKPOLY
 70
     0
  9
$TDCREATE
 40
2454437.0454229861
  9
$TDUPDATE
 40
2456211.893203056
  9
$TDINDWG
 40
0.0795843634
  9
$TDUSRTIMER
 40
0.0795834722
  9
$USRTIMER
 70
     1
  9
$ANGBASE
 50
0.0
  9
$ANGDIR
 70
     0
  9
$PDMODE
 70
     0
  9
$PDSIZE
 40
0.0
  9
$PLINEWID
 40
0.0
  9
$COORDS
 70
     0
  9
$SPLFRAME
 70
     0
  9
$SPLINETYPE
 70
     6
  9
$SPLINESEGS
 70
     8
  9
$ATTDIA
 70
     0
  9
$ATTREQ
 70
     1
  9
$HANDLING
 70
     1
  9
$HANDSEED
  5
7B0
  9
$SURFTAB1
 70
     6
  9
$SURFTAB2
 70
     6
  9
$SURFTYPE
 70
     6
  9
$SURFU
 70
     6
  9
$SURFV
 70
     6
  9
$UCSNAME
  2

  9
$UCSORG
 10
0.0
 20
0.0
 30
0.0
  9
$UCSXDIR
 10
1.0
 20
0.0
 30
0.0
  9
$UCSYDIR
 10
0.0
 20
1.0
 30
0.0
  9
$PUCSNAME
  2

  9
$PUCSORG
 10
0.0
 20
0.0
 30
0.0
  9
$PUCSXDIR
 10
1.0
 20
0.0
 30
0.0
  9
$PUCSYDIR
 10
0.0
 20
1.0
 30
0.0
  9
$USERI1
 70
     0
  9
$USERI2
 70
     0
  9
$USERI3
 70
     0
  9
$USERI4
 70
     0
  9
$USERI5
 70
     0
  9
$USERR1
 40
0.0
  9
$USERR2
 40
0.0
  9
$USERR3
 40
0.0
  9
$USERR4
 40
0.0
  9
$USERR5
 40
0.0
  9
$WORLDVIEW
 70
     1
  9
$SHADEDGE
 70
     3
  9
$SHADEDIF
 70
    70
  9
$TILEMODE
 70
     1
  9
$MAXACTVP
 70
    64
  9
$PLIMCHECK
 70
     0
  9
$PEXTMIN
 10
0.0
 20
0.0
 30
0.0
  9
$PEXTMAX
 10
0.0
 20
0.0
 30
0.0
  9
$PLIMMIN
 10
0.0
 20
0.0
  9
$PLIMMAX
 10
12.0
 20
9.0
  9
$UNITMODE
 70
     0
  9
$VISRETAIN
 70
     1
  9
$PLINEGEN
 70
     0
  9
$PSLTSCALE
 70
     1
  0
ENDSEC
  0
SECTION
  2
TABLES
  0
TABLE
  2
VPORT
 70
     1
  0
VPORT
  2
*ACTIVE
 70
     0
 10
0.0
 20
0.0
 11
1.0
 21
1.0
 12
204.1052004377527
 22
47.239895267654212
 13
0.0
 23
0.0
 14
10.0
 24
10.0
 15
10.0
 25
10.0
 16
0.0
 26
0.0
 36
1.0
 17
0.0
 27
0.0
 37
0.0
 40
774.34869390068707
 41
2.2763636363636359
 42
50.0
 43
0.0
 44
0.0
 50
0.0
 51
0.0
 71
     0
 72
   100
 73
     1
 74
     3
 75
     0
 76
     0
 77
     0
 78
     0
  0
ENDTAB
  0
TABLE
  2
LTYPE
 70
     1
  0
LTYPE
  2
CONTINUOUS
 70
     0
  3
Solid line
 72
    65
 73
     0
 40
0.0
  0
ENDTAB
  0
TABLE
  2
LAYER
 70
     4
  0
LAYER
  2
0
 70
     0
 62
     7
  6
CONTINUOUS
  0
LAYER
  2
LAYER01
 70
     0
 62
     7
  6
CONTINUOUS
  0
LAYER
  2
7
 70
     0
 62
     7
  6
CONTINUOUS
  0
LAYER
  2
DEFPOINTS
 70
     0
 62
     7
  6
CONTINUOUS
  0
ENDTAB
  0
TABLE
  2
STYLE
 70
     1
  0
STYLE
  2
STANDARD
 70
     0
 40
0.0
 41
1.0
 50
0.0
 71
     0
 42
2.5
  3
txt
  4

  0
ENDTAB
  0
TABLE
  2
VIEW
 70
     0
  0
ENDTAB
  0
TABLE
  2
UCS
 70
     0
  0
ENDTAB
  0
TABLE
  2
APPID
 70
     2
  0
APPID
  2
ACAD
 70
     0
  0
APPID
  2
ACAD_MLEADERVER
 70
     0
  0
ENDTAB
  0
TABLE
  2
DIMSTYLE
 70
     2
  0
DIMSTYLE
  2
ISO-25
 70
     0
  3

  4

  5

  6

  7

 40
1.0
 41
2.5
 42
0.625
 43
3.75
 44
1.25
 45
0.0
 46
0.0
 47
0.0
 48
0.0
140
2.5
141
2.5
142
0.0
143
0.03937007874016
144
1.0
145
0.0
146
1.0
147
0.625
 71
     0
 72
     0
 73
     0
 74
     0
 75
     0
 76
     0
 77
     1
 78
     8
170
     0
171
     3
172
     1
173
     0
174
     0
175
     0
176
     0
177
     0
178
     0
  0
DIMSTYLE
  2
STANDARD
 70
     0
  3

  4

  5

  6

  7

 40
1.0
 41
0.18
 42
0.0625
 43
0.38
 44
0.18
 45
0.0
 46
0.0
 47
0.0
 48
0.0
140
0.18
141
0.09
142
0.0
143
25.399999999999999
144
1.0
145
0.0
146
1.0
147
0.09
 71
     0
 72
     0
 73
     1
 74
     1
 75
     0
 76
     0
 77
     0
 78
     0
170
     0
171
     2
172
     0
173
     0
174
     0
175
     0
176
     0
177
     0
178
     0
  0
ENDTAB
  0
ENDSEC
  0
SECTION
  2
BLOCKS
  0
BLOCK
  8
0
  2
$MODEL_SPACE
 70
     0
 10
0.0
 20
0.0
 30
0.0
  3
$MODEL_SPACE
  1

  0
ENDBLK
  5
1F8
  8
0
  0
BLOCK
 67
     1
  8
0
  2
$PAPER_SPACE
 70
     0
 10
0.0
 20
0.0
 30
0.0
  3
$PAPER_SPACE
  1

  0
ENDBLK
  5
1F4
 67
     1
  8
0
  0
BLOCK
  8
0
  2
*D2
 70
     1
 10
0.0
 20
0.0
 30
0.0
  3
*D2
  1

  0
LINE
  5
747
  8
0
 62
     0
 10
-52.488392583396951
 20
-217.4818341042515
 30
0.0
 11
-52.488392583396951
 21
-199.01191185887001
 31
0.0
  0
LINE
  5
748
  8
0
 62
     0
 10
113.028301576045
 20
-226.9484380318267
 30
0.0
 11
113.028301576045
 21
-199.01191185887001
 31
0.0
  0
LINE
  5
749
  8
0
 62
     0
 10
-49.988392583396951
 20
-200.26191185887001
 30
0.0
 11
110.528301576045
 21
-200.26191185887001
 31
0.0
  0
SOLID
  5
74A
  8
0
 62
     0
 10
-49.988392583396951
 20
-199.84524519220329
 30
0.0
 11
-49.988392583396951
 21
-200.67857852553669
 31
0.0
 12
-52.488392583396951
 22
-200.26191185887001
 32
0.0
 13
-52.488392583396951
 23
-200.26191185887001
 33
0.0
  0
SOLID
  5
74B
  8
0
 62
     0
 10
110.528301576045
 20
-199.84524519220329
 30
0.0
 11
110.528301576045
 21
-200.67857852553669
 31
0.0
 12
113.028301576045
 22
-200.26191185887001
 32
0.0
 13
113.028301576045
 23
-200.26191185887001
 33
0.0
  0
TEXT
  8
0
  40
8
  5
7AB
  62
0
  72
0
  71
0
 10
14.2700
 20
-209.797
 30
0.000000
  1
165.5167
  0
POINT
  5
74D
  8
DEFPOINTS
 62
     0
 10
-52.488392583396951
 20
-218.1068341042515
 30
0.0
  0
POINT
  5
74E
  8
DEFPOINTS
 62
     0
 10
113.028301576045
 20
-227.5734380318267
 30
0.0
  0
POINT
  5
74F
  8
DEFPOINTS
 62
     0
 10
113.028301576045
 20
-200.26191185887001
 30
0.0
  0
ENDBLK
  5
631
  8
0
  0
BLOCK
  8
0
  2
*D3
 70
     1
 10
0.0
 20
0.0
 30
0.0
  3
*D3
  1

  0
LINE
  5
750
  8
0
 62
     0
 10
-53.11339258339693
 20
-282.96294901451478
 30
0.0
 11
-71.911010347016585
 21
-282.96294901451478
 31
0.0
  0
LINE
  5
751
  8
0
 62
     0
 10
-53.113392583396951
 20
-218.1068341042515
 30
0.0
 11
-71.911010347016585
 21
-218.1068341042515
 31
0.0
  0
LINE
  5
752
  8
0
 62
     0
 10
-70.661010347016585
 20
-280.46294901451478
 30
0.0
 11
-70.661010347016585
 21
-220.6068341042515
 31
0.0
  0
SOLID
  5
753
  8
0
 62
     0
 10
-71.077677013683271
 20
-280.46294901451478
 30
0.0
 11
-70.244343680349914
 21
-280.46294901451478
 31
0.0
 12
-70.661010347016585
 22
-282.96294901451478
 32
0.0
 13
-70.661010347016585
 23
-282.96294901451478
 33
0.0
  0
SOLID
  5
754
  8
0
 62
     0
 10
-71.077677013683257
 20
-220.6068341042515
 30
0.0
 11
-70.244343680349914
 21
-220.6068341042515
 31
0.0
 12
-70.661010347016585
 22
-218.1068341042515
 32
0.0
 13
-70.661010347016585
 23
-218.1068341042515
 33
0.0
  0
TEXT
  8
0
  40
8
  5
7AC
  62
0
  72
0
  71
0
 10
-91.2860
 20
-264.695
 30
0.000000
  1
64.8561
  0
POINT
  5
756
  8
DEFPOINTS
 62
     0
 10
-52.48839258339693
 20
-282.96294901451478
 30
0.0
  0
POINT
  5
757
  8
DEFPOINTS
 62
     0
 10
-52.488392583396951
 20
-218.1068341042515
 30
0.0
  0
POINT
  5
758
  8
DEFPOINTS
 62
     0
 10
-70.661010347016585
 20
-218.1068341042515
 30
0.0
  0
ENDBLK
  5
63E
  8
0
  0
BLOCK
  8
0
  2
*D4
 70
     1
 10
0.0
 20
0.0
 30
0.0
  3
*D4
  1

  0
LINE
  5
759
  8
0
 62
     0
 10
45.124752455042191
 20
-252.46758756354299
 30
0.0
 11
45.124752455042191
 21
-267.68194358361671
 31
0.0
  0
LINE
  5
75A
  8
0
 62
     0
 10
74.624752455042199
 20
-252.46758756354299
 30
0.0
 11
74.624752455042199
 21
-267.68194358361671
 31
0.0
  0
LINE
  5
75B
  8
0
 62
     0
 10
47.624752455042191
 20
-266.43194358361671
 30
0.0
 11
72.124752455042199
 21
-266.43194358361671
 31
0.0
  0
SOLID
  5
75C
  8
0
 62
     0
 10
47.624752455042191
 20
-266.01527691694997
 30
0.0
 11
47.624752455042191
 21
-266.84861025028329
 31
0.0
 12
45.124752455042191
 22
-266.43194358361671
 32
0.0
 13
45.124752455042191
 23
-266.43194358361671
 33
0.0
  0
SOLID
  5
75D
  8
0
 62
     0
 10
72.124752455042199
 20
-266.01527691694997
 30
0.0
 11
72.124752455042199
 21
-266.84861025028329
 31
0.0
 12
74.624752455042199
 22
-266.43194358361671
 32
0.0
 13
74.624752455042199
 23
-266.43194358361671
 33
0.0
  0
TEXT
  8
0
  40
8
  5
7AD
  62
0
  72
0
  71
0
 10
43.8748
 20
-275.967
 30
0.000000
  1
29.5
  0
POINT
  5
75F
  8
DEFPOINTS
 62
     0
 10
45.124752455042191
 20
-251.84258756354299
 30
0.0
  0
POINT
  5
760
  8
DEFPOINTS
 62
     0
 10
74.624752455042199
 20
-251.84258756354299
 30
0.0
  0
POINT
  5
761
  8
DEFPOINTS
 62
     0
 10
74.624752455042199
 20
-266.43194358361671
 30
0.0
  0
ENDBLK
  5
64B
  8
0
  0
BLOCK
  8
0
  2
*D5
 70
     1
 10
0.0
 20
0.0
 30
0.0
  3
*D5
  1

  0
LINE
  5
762
  8
0
 62
     0
 10
75.249752455042199
 20
-251.84258756354299
 30
0.0
 11
90.441472180458277
 21
-251.84258756354299
 31
0.0
  0
LINE
  5
763
  8
0
 62
     0
 10
75.249752455042199
 20
-238.642587563543
 30
0.0
 11
90.441472180458277
 21
-238.642587563543
 31
0.0
  0
LINE
  5
764
  8
0
 62
     0
 10
89.191472180458277
 20
-249.34258756354299
 30
0.0
 11
89.191472180458277
 21
-241.142587563543
 31
0.0
  0
LINE
  5
765
  8
0
 62
     0
 10
89.191472180458277
 20
-238.642587563543
 30
0.0
 11
89.191472180458291
 21
-213.55925423020969
 31
0.0
  0
SOLID
  5
766
  8
0
 62
     0
 10
88.774805513791605
 20
-249.34258756354299
 30
0.0
 11
89.608138847124948
 21
-249.34258756354299
 31
0.0
 12
89.191472180458277
 22
-251.84258756354299
 32
0.0
 13
89.191472180458277
 23
-251.84258756354299
 33
0.0
  0
SOLID
  5
767
  8
0
 62
     0
 10
88.774805513791605
 20
-241.142587563543
 30
0.0
 11
89.608138847124948
 21
-241.142587563543
 31
0.0
 12
89.191472180458277
 22
-238.642587563543
 32
0.0
 13
89.191472180458277
 23
-238.642587563543
 33
0.0
  0
TEXT
  8
0
  40
8
  5
7AE
  62
0
  72
0
  71
0
 10
68.5665
 20
-239.011
 30
0.000000
  1
13.2
  0
POINT
  5
769
  8
DEFPOINTS
 62
     0
 10
74.624752455042199
 20
-251.84258756354299
 30
0.0
  0
POINT
  5
76A
  8
DEFPOINTS
 62
     0
 10
74.624752455042199
 20
-238.642587563543
 30
0.0
  0
POINT
  5
76B
  8
DEFPOINTS
 62
     0
 10
89.191472180458277
 20
-238.642587563543
 30
0.0
  0
ENDBLK
  5
658
  8
0
  0
BLOCK
  8
0
  2
*D6
 70
     1
 10
0.0
 20
0.0
 30
0.0
  3
*D6
  1

  0
LINE
  5
76C
  8
0
 62
     0
 10
113.6533015760449
 20
-273.49634508693958
 30
0.0
 11
136.57033161415069
 21
-273.4963450869397
 31
0.0
  0
LINE
  5
76D
  8
0
 62
     0
 10
113.653301576045
 20
-227.5734380318267
 30
0.0
 11
136.57033161415069
 21
-227.5734380318267
 31
0.0
  0
LINE
  5
76E
  8
0
 62
     0
 10
135.32033161415069
 20
-270.9963450869397
 30
0.0
 11
135.32033161415069
 21
-230.0734380318267
 31
0.0
  0
LINE
  5
76F
  8
0
 62
     0
 10
135.32033161415069
 20
-227.5734380318267
 30
0.0
 11
135.3203316141508
 21
-175.8234380318267
 31
0.0
  0
SOLID
  5
770
  8
0
 62
     0
 10
134.90366494748409
 20
-270.9963450869397
 30
0.0
 11
135.7369982808174
 21
-270.9963450869397
 31
0.0
 12
135.32033161415069
 22
-273.4963450869397
 32
0.0
 13
135.32033161415069
 23
-273.4963450869397
 33
0.0
  0
SOLID
  5
771
  8
0
 62
     0
 10
134.90366494748409
 20
-230.0734380318267
 30
0.0
 11
135.7369982808174
 21
-230.0734380318267
 31
0.0
 12
135.32033161415069
 22
-227.5734380318267
 32
0.0
 13
135.32033161415069
 23
-227.5734380318267
 33
0.0
  0
TEXT
  8
0
  40
8
  5
7AF
  62
0
  72
0
  71
0
 10
114.695
 20
-214.608
 30
0.000000
  1
45.9229
  0
POINT
  5
773
  8
DEFPOINTS
 62
     0
 10
113.0283015760449
 20
-273.49634508693958
 30
0.0
  0
POINT
  5
774
  8
DEFPOINTS
 62
     0
 10
113.028301576045
 20
-227.5734380318267
 30
0.0
  0
POINT
  5
775
  8
DEFPOINTS
 62
     0
 10
135.32033161415069
 20
-227.5734380318267
 30
0.0
  0
ENDBLK
  5
665
  8
0
  0
ENDSEC
  0
SECTION
  2
ENTITIES
  0
POLYLINE
  5
294
  8
LAYER01
  6
CONTINUOUS
 62
     7
 66
     1
 10
0.0
 20
0.0
 30
0.0
 39
140.5320807350918
 70
     1
  0
VERTEX
  5
72A
  8
LAYER01
  6
CONTINUOUS
 62
     7
 10
267.90953865408198
 20
372.52730208770453
 30
0.0
  0
VERTEX
  5
72B
  8
LAYER01
  6
CONTINUOUS
 62
     7
 10
263.90673411546078
 20
372.5527709278183
 30
0.0
  0
VERTEX
  5
72C
  8
LAYER01
  6
CONTINUOUS
 62
     7
 10
263.90834515694058
 20
347.55277097972743
 30
0.0
  0
VERTEX
  5
72D
  8
LAYER01
  6
CONTINUOUS
 62
     7
 10
267.9082369902826
 20
347.52730212159122
 30
0.0
  0
SEQEND
  5
72E
  8
LAYER01
  6
CONTINUOUS
 62
     7
  0
POLYLINE
  5
29A
  8
LAYER01
  6
CONTINUOUS
 62
     7
 66
     1
 10
0.0
 20
0.0
 30
0.0
 39
140.5320807350918
 70
     1
  0
VERTEX
  5
72F
  8
LAYER01
  6
CONTINUOUS
 62
     7
 10
527.72160558364476
 20
347.5273021396136
 30
0.0
  0
VERTEX
  5
730
  8
LAYER01
  6
CONTINUOUS
 62
     7
 10
531.72149741698695
 20
347.50183328147727
 30
0.0
  0
VERTEX
  5
731
  8
LAYER01
  6
CONTINUOUS
 62
     7
 10
531.72279908078644
 20
372.50183324759058
 30
0.0
  0
VERTEX
  5
732
  8
LAYER01
  6
CONTINUOUS
 62
     7
 10
527.71999454216495
 20
372.52730208770453
 30
0.0
  0
SEQEND
  5
733
  8
LAYER01
  6
CONTINUOUS
 62
     7
  0
POLYLINE
  5
2A0
  8
LAYER01
  6
CONTINUOUS
 62
     7
 66
     1
 10
0.0
 20
0.0
 30
0.0
 39
140.5320807350918
 70
     1
  0
VERTEX
  5
734
  8
LAYER01
  6
CONTINUOUS
 62
     7
 10
738.4626010366261
 20
359.85682519597981
 30
0.0
  0
VERTEX
  5
735
  8
LAYER01
  6
CONTINUOUS
 62
     7
 10
734.46260103662587
 20
359.85682519597981
 30
0.0
  0
VERTEX
  5
736
  8
LAYER01
  6
CONTINUOUS
 62
     7
 10
734.46260103662587
 20
346.85682519597981
 30
0.0
  0
VERTEX
  5
737
  8
LAYER01
  6
CONTINUOUS
 62
     7
 10
738.4626010366261
 20
346.85682519597981
 30
0.0
  0
SEQEND
  5
738
  8
LAYER01
  6
CONTINUOUS
 62
     7
  0
LINE
  5
2AA
  8
7
  6
CONTINUOUS
 10
167.4054687116506
 20
325.91430799647918
 30
0.0
 11
167.4054687116506
 21
382.91430799647912
 31
0.0
  0
LINE
  5
2AD
  8
7
  6
CONTINUOUS
 10
527.71999454216495
 20
391.9307081720558
 30
0.0
 11
877.405468711651
 21
367.89961242857743
 31
0.0
  0
LINE
  5
3A5
  8
7
  6
CONTINUOUS
 10
293.51891670503619
 20
400.37765914584958
 30
0.0
 11
292.60299454216499
 21
400.09369910854792
 31
0.0
  0
LINE
  5
3A6
  8
7
  6
CONTINUOUS
 10
292.60299454216499
 20
400.09369910854792
 30
0.0
 11
291.09499454216513
 21
399.5946991085479
 31
0.0
  0
LINE
  5
3A7
  8
7
  6
CONTINUOUS
 10
291.09499454216513
 20
399.5946991085479
 30
0.0
 11
289.83199454216509
 21
399.150699108548
 31
0.0
  0
LINE
  5
3A8
  8
7
  6
CONTINUOUS
 10
289.83199454216509
 20
399.150699108548
 30
0.0
 11
288.57799454216507
 21
398.68269910854792
 31
0.0
  0
LINE
  5
3A9
  8
7
  6
CONTINUOUS
 10
288.57799454216507
 20
398.68269910854792
 30
0.0
 11
287.33399454216499
 21
398.18769910854792
 31
0.0
  0
LINE
  5
3AA
  8
7
  6
CONTINUOUS
 10
287.33399454216499
 20
398.18769910854792
 30
0.0
 11
286.09999454216512
 21
397.66469910854801
 31
0.0
  0
LINE
  5
3AB
  8
7
  6
CONTINUOUS
 10
286.09999454216512
 20
397.66469910854801
 30
0.0
 11
285.1079945421651
 21
397.21769910854789
 31
0.0
  0
LINE
  5
3AC
  8
7
  6
CONTINUOUS
 10
285.1079945421651
 20
397.21769910854789
 30
0.0
 11
284.12799454216508
 21
396.74469910854788
 31
0.0
  0
LINE
  5
3AD
  8
7
  6
CONTINUOUS
 10
284.12799454216508
 20
396.74469910854788
 30
0.0
 11
283.16499454216512
 21
396.23869910854802
 31
0.0
  0
LINE
  5
3AE
  8
7
  6
CONTINUOUS
 10
283.16499454216512
 20
396.23869910854802
 30
0.0
 11
282.22499454216512
 21
395.69569910854801
 31
0.0
  0
LINE
  5
3AF
  8
7
  6
CONTINUOUS
 10
282.22499454216512
 20
395.69569910854801
 30
0.0
 11
281.51699454216509
 21
395.24769910854798
 31
0.0
  0
LINE
  5
3B0
  8
7
  6
CONTINUOUS
 10
281.51699454216509
 20
395.24769910854798
 30
0.0
 11
280.82499454216509
 21
394.77369910854787
 31
0.0
  0
LINE
  5
3B1
  8
7
  6
CONTINUOUS
 10
280.82499454216509
 20
394.77369910854787
 30
0.0
 11
280.14799454216512
 21
394.27669910854797
 31
0.0
  0
LINE
  5
3B2
  8
7
  6
CONTINUOUS
 10
280.14799454216512
 20
394.27669910854797
 30
0.0
 11
279.4879945421651
 21
393.7556991085479
 31
0.0
  0
LINE
  5
3B3
  8
7
  6
CONTINUOUS
 10
279.4879945421651
 20
393.7556991085479
 30
0.0
 11
279.02899454216509
 21
393.36869910854801
 31
0.0
  0
LINE
  5
3B4
  8
7
  6
CONTINUOUS
 10
279.02899454216509
 20
393.36869910854801
 30
0.0
 11
278.60099454216498
 21
392.95169910854793
 31
0.0
  0
LINE
  5
3B5
  8
7
  6
CONTINUOUS
 10
278.60099454216498
 20
392.95169910854793
 30
0.0
 11
278.22199454216508
 21
392.48569910854792
 31
0.0
  0
LINE
  5
3B6
  8
7
  6
CONTINUOUS
 10
278.22199454216508
 20
392.48569910854792
 30
0.0
 11
277.91499454216512
 21
391.95469910854803
 31
0.0
  0
LINE
  5
3B7
  8
7
  6
CONTINUOUS
 10
277.91499454216512
 20
391.95469910854803
 30
0.0
 11
277.77699454216508
 21
391.60169910854802
 31
0.0
  0
LINE
  5
3B8
  8
7
  6
CONTINUOUS
 10
277.77699454216508
 20
391.60169910854802
 30
0.0
 11
277.68699454216511
 21
391.23569910854792
 31
0.0
  0
LINE
  5
3B9
  8
7
  6
CONTINUOUS
 10
277.68699454216511
 20
391.23569910854792
 30
0.0
 11
277.66299454216499
 21
390.876699108548
 31
0.0
  0
LINE
  5
3BA
  8
7
  6
CONTINUOUS
 10
277.66299454216499
 20
390.876699108548
 30
0.0
 11
277.71999454216513
 21
390.53969910854789
 31
0.0
  0
LINE
  5
3BB
  8
7
  6
CONTINUOUS
 10
277.71999454216513
 20
390.53969910854789
 30
0.0
 11
277.9279945421651
 21
390.15869910854798
 31
0.0
  0
LINE
  5
3BC
  8
7
  6
CONTINUOUS
 10
277.9279945421651
 20
390.15869910854798
 30
0.0
 11
278.25499454216509
 21
389.83469910854802
 31
0.0
  0
LINE
  5
3BD
  8
7
  6
CONTINUOUS
 10
278.25499454216509
 20
389.83469910854802
 30
0.0
 11
278.657994542165
 21
389.55269910854793
 31
0.0
  0
LINE
  5
3BE
  8
7
  6
CONTINUOUS
 10
278.657994542165
 20
389.55269910854793
 30
0.0
 11
279.092994542165
 21
389.299699108548
 31
0.0
  0
LINE
  5
3BF
  8
7
  6
CONTINUOUS
 10
279.092994542165
 20
389.299699108548
 30
0.0
 11
279.81599454216507
 21
388.90969910854801
 31
0.0
  0
LINE
  5
3C0
  8
7
  6
CONTINUOUS
 10
279.81599454216507
 20
388.90969910854801
 30
0.0
 11
280.5189945421651
 21
388.5586991085479
 31
0.0
  0
LINE
  5
3C1
  8
7
  6
CONTINUOUS
 10
280.5189945421651
 20
388.5586991085479
 30
0.0
 11
281.21499454216507
 21
388.23969910854788
 31
0.0
  0
LINE
  5
3C2
  8
7
  6
CONTINUOUS
 10
281.21499454216507
 20
388.23969910854788
 30
0.0
 11
281.91799454216499
 21
387.94669910854788
 31
0.0
  0
LINE
  5
3C3
  8
7
  6
CONTINUOUS
 10
281.91799454216499
 20
387.94669910854788
 30
0.0
 11
282.91499454216512
 21
387.57269910854791
 31
0.0
  0
LINE
  5
3C4
  8
7
  6
CONTINUOUS
 10
282.91499454216512
 20
387.57269910854791
 30
0.0
 11
283.9399945421651
 21
387.2316991085479
 31
0.0
  0
LINE
  5
3C5
  8
7
  6
CONTINUOUS
 10
283.9399945421651
 20
387.2316991085479
 30
0.0
 11
284.98299454216499
 21
386.91669910854802
 31
0.0
  0
LINE
  5
3C6
  8
7
  6
CONTINUOUS
 10
284.98299454216499
 20
386.91669910854802
 30
0.0
 11
286.03499454216512
 21
386.62569910854791
 31
0.0
  0
LINE
  5
3C7
  8
7
  6
CONTINUOUS
 10
286.03499454216512
 20
386.62569910854791
 30
0.0
 11
287.37799454216508
 21
386.27969910854802
 31
0.0
  0
LINE
  5
3C8
  8
7
  6
CONTINUOUS
 10
287.37799454216508
 20
386.27969910854802
 30
0.0
 11
288.71999454216513
 21
385.96169910854792
 31
0.0
  0
LINE
  5
3C9
  8
7
  6
CONTINUOUS
 10
288.71999454216513
 20
385.96169910854792
 30
0.0
 11
290.06399454216512
 21
385.66569910854793
 31
0.0
  0
LINE
  5
3CA
  8
7
  6
CONTINUOUS
 10
290.06399454216512
 20
385.66569910854793
 30
0.0
 11
291.41299454216511
 21
385.38969910854792
 31
0.0
  0
LINE
  5
3CB
  8
7
  6
CONTINUOUS
 10
291.41299454216511
 20
385.38969910854792
 30
0.0
 11
293.05299454216498
 21
385.07669910854793
 31
0.0
  0
LINE
  5
3CC
  8
7
  6
CONTINUOUS
 10
293.05299454216498
 20
385.07669910854793
 30
0.0
 11
294.69999454216509
 21
384.78469910854801
 31
0.0
  0
LINE
  5
3CD
  8
7
  6
CONTINUOUS
 10
294.69999454216509
 20
384.78469910854801
 30
0.0
 11
296.35099454216498
 21
384.513699108548
 31
0.0
  0
LINE
  5
3CE
  8
7
  6
CONTINUOUS
 10
296.35099454216498
 20
384.513699108548
 30
0.0
 11
298.00499454216509
 21
384.258699108548
 31
0.0
  0
LINE
  5
3CF
  8
7
  6
CONTINUOUS
 10
298.00499454216509
 20
384.258699108548
 30
0.0
 11
299.9399945421651
 21
383.979699108548
 31
0.0
  0
LINE
  5
3D0
  8
7
  6
CONTINUOUS
 10
299.9399945421651
 20
383.979699108548
 30
0.0
 11
301.87499454216498
 21
383.7196991085479
 31
0.0
  0
LINE
  5
3D1
  8
7
  6
CONTINUOUS
 10
301.87499454216498
 20
383.7196991085479
 30
0.0
 11
303.81299454216509
 21
383.47569910854787
 31
0.0
  0
LINE
  5
3D2
  8
7
  6
CONTINUOUS
 10
303.81299454216509
 20
383.47569910854787
 30
0.0
 11
305.75299454216508
 21
383.24469910854788
 31
0.0
  0
LINE
  5
3D3
  8
7
  6
CONTINUOUS
 10
305.75299454216508
 20
383.24469910854788
 30
0.0
 11
307.955994542165
 21
382.99769910854798
 31
0.0
  0
LINE
  5
3D4
  8
7
  6
CONTINUOUS
 10
307.955994542165
 20
382.99769910854798
 30
0.0
 11
310.1609945421651
 21
382.763699108548
 31
0.0
  0
LINE
  5
3D5
  8
7
  6
CONTINUOUS
 10
310.1609945421651
 20
382.763699108548
 30
0.0
 11
312.36699454216512
 21
382.54369910854803
 31
0.0
  0
LINE
  5
3D6
  8
7
  6
CONTINUOUS
 10
312.36699454216512
 20
382.54369910854803
 30
0.0
 11
314.57499454216509
 21
382.33469910854802
 31
0.0
  0
LINE
  5
3D7
  8
7
  6
CONTINUOUS
 10
314.57499454216509
 20
382.33469910854802
 30
0.0
 11
317.02099454216511
 21
382.116699108548
 31
0.0
  0
LINE
  5
3D8
  8
7
  6
CONTINUOUS
 10
317.02099454216511
 20
382.116699108548
 30
0.0
 11
319.46799454216512
 21
381.91169910854791
 31
0.0
  0
LINE
  5
3D9
  8
7
  6
CONTINUOUS
 10
319.46799454216512
 20
381.91169910854791
 30
0.0
 11
321.91599454216509
 21
381.71869910854798
 31
0.0
  0
LINE
  5
3DA
  8
7
  6
CONTINUOUS
 10
321.91599454216509
 20
381.71869910854798
 30
0.0
 11
324.36499454216511
 21
381.53669910854791
 31
0.0
  0
LINE
  5
3DB
  8
7
  6
CONTINUOUS
 10
324.36499454216511
 20
381.53669910854791
 30
0.0
 11
327.02599454216499
 21
381.35069910854787
 31
0.0
  0
LINE
  5
3DC
  8
7
  6
CONTINUOUS
 10
327.02599454216499
 20
381.35069910854787
 30
0.0
 11
329.68599454216508
 21
381.17569910854797
 31
0.0
  0
LINE
  5
3DD
  8
7
  6
CONTINUOUS
 10
329.68599454216508
 20
381.17569910854797
 30
0.0
 11
332.34699454216508
 21
381.01169910854799
 31
0.0
  0
LINE
  5
3DE
  8
7
  6
CONTINUOUS
 10
332.34699454216508
 20
381.01169910854799
 30
0.0
 11
335.00999454216509
 21
380.85769910854788
 31
0.0
  0
LINE
  5
3DF
  8
7
  6
CONTINUOUS
 10
335.00999454216509
 20
380.85769910854788
 30
0.0
 11
337.85299454216511
 21
380.70369910854799
 31
0.0
  0
LINE
  5
3E0
  8
7
  6
CONTINUOUS
 10
337.85299454216511
 20
380.70369910854799
 30
0.0
 11
340.69499454216509
 21
380.561699108548
 31
0.0
  0
LINE
  5
3E1
  8
7
  6
CONTINUOUS
 10
340.69499454216509
 20
380.561699108548
 30
0.0
 11
343.53799454216499
 21
380.42869910854802
 31
0.0
  0
LINE
  5
3E2
  8
7
  6
CONTINUOUS
 10
343.53799454216499
 20
380.42869910854802
 30
0.0
 11
346.38299454216508
 21
380.30769910854792
 31
0.0
  0
LINE
  5
3E3
  8
7
  6
CONTINUOUS
 10
346.38299454216508
 20
380.30769910854792
 30
0.0
 11
349.37799454216508
 21
380.18969910854798
 31
0.0
  0
LINE
  5
3E4
  8
7
  6
CONTINUOUS
 10
349.37799454216508
 20
380.18969910854798
 30
0.0
 11
352.37299454216509
 21
380.08369910854799
 31
0.0
  0
LINE
  5
3E5
  8
7
  6
CONTINUOUS
 10
352.37299454216509
 20
380.08369910854799
 30
0.0
 11
355.36799454216509
 21
379.98669910854801
 31
0.0
  0
LINE
  5
3E6
  8
7
  6
CONTINUOUS
 10
355.36799454216509
 20
379.98669910854801
 30
0.0
 11
358.36499454216511
 21
379.90069910854788
 31
0.0
  0
LINE
  5
3E7
  8
7
  6
CONTINUOUS
 10
358.36499454216511
 20
379.90069910854788
 30
0.0
 11
361.4829945421651
 21
379.81969910854798
 31
0.0
  0
LINE
  5
3E8
  8
7
  6
CONTINUOUS
 10
361.4829945421651
 20
379.81969910854798
 30
0.0
 11
364.59999454216501
 21
379.74869910854801
 31
0.0
  0
LINE
  5
3E9
  8
7
  6
CONTINUOUS
 10
364.59999454216501
 20
379.74869910854801
 30
0.0
 11
367.71699454216508
 21
379.68769910854792
 31
0.0
  0
LINE
  5
3EA
  8
7
  6
CONTINUOUS
 10
367.71699454216508
 20
379.68769910854792
 30
0.0
 11
370.83499454216508
 21
379.63469910854792
 31
0.0
  0
LINE
  5
3EB
  8
7
  6
CONTINUOUS
 10
370.83499454216508
 20
379.63469910854792
 30
0.0
 11
374.04199454216513
 21
379.58969910854802
 31
0.0
  0
LINE
  5
3EC
  8
7
  6
CONTINUOUS
 10
374.04199454216513
 20
379.58969910854802
 30
0.0
 11
377.24699454216511
 21
379.55369910854802
 31
0.0
  0
LINE
  5
3ED
  8
7
  6
CONTINUOUS
 10
377.24699454216511
 20
379.55369910854802
 30
0.0
 11
380.45299454216507
 21
379.525699108548
 31
0.0
  0
LINE
  5
3EE
  8
7
  6
CONTINUOUS
 10
380.45299454216507
 20
379.525699108548
 30
0.0
 11
383.65999454216512
 21
379.5056991085479
 31
0.0
  0
LINE
  5
3EF
  8
7
  6
CONTINUOUS
 10
383.65999454216512
 20
379.5056991085479
 30
0.0
 11
386.91699454216513
 21
379.49369910854801
 31
0.0
  0
LINE
  5
3F0
  8
7
  6
CONTINUOUS
 10
386.91699454216513
 20
379.49369910854801
 30
0.0
 11
390.17299454216499
 21
379.48969910854788
 31
0.0
  0
LINE
  5
3F1
  8
7
  6
CONTINUOUS
 10
390.17299454216499
 20
379.48969910854788
 30
0.0
 11
393.42799454216498
 21
379.49269910854798
 31
0.0
  0
LINE
  5
3F2
  8
7
  6
CONTINUOUS
 10
393.42799454216498
 20
379.49269910854798
 30
0.0
 11
396.6849945421651
 21
379.50469910854792
 31
0.0
  0
LINE
  5
3F3
  8
7
  6
CONTINUOUS
 10
396.6849945421651
 20
379.50469910854792
 30
0.0
 11
399.95599454216512
 21
379.52469910854802
 31
0.0
  0
LINE
  5
3F4
  8
7
  6
CONTINUOUS
 10
399.95599454216512
 20
379.52469910854802
 30
0.0
 11
403.22499454216501
 21
379.55269910854793
 31
0.0
  0
LINE
  5
3F5
  8
7
  6
CONTINUOUS
 10
403.22499454216501
 20
379.55269910854793
 30
0.0
 11
406.49499454216499
 21
379.58969910854802
 31
0.0
  0
LINE
  5
3F6
  8
7
  6
CONTINUOUS
 10
406.49499454216499
 20
379.58969910854802
 30
0.0
 11
409.76499454216491
 21
379.63269910854791
 31
0.0
  0
LINE
  5
3F7
  8
7
  6
CONTINUOUS
 10
409.76499454216491
 20
379.63269910854791
 30
0.0
 11
413.01299454216502
 21
379.68369910854801
 31
0.0
  0
LINE
  5
3F8
  8
7
  6
CONTINUOUS
 10
413.01299454216502
 20
379.68369910854801
 30
0.0
 11
416.258994542165
 21
379.741699108548
 31
0.0
  0
LINE
  5
3F9
  8
7
  6
CONTINUOUS
 10
416.258994542165
 20
379.741699108548
 30
0.0
 11
419.50499454216498
 21
379.80769910854792
 31
0.0
  0
LINE
  5
3FA
  8
7
  6
CONTINUOUS
 10
419.50499454216498
 20
379.80769910854792
 30
0.0
 11
422.75299454216503
 21
379.88169910854799
 31
0.0
  0
LINE
  5
3FB
  8
7
  6
CONTINUOUS
 10
422.75299454216503
 20
379.88169910854799
 30
0.0
 11
425.93799454216497
 21
379.96269910854789
 31
0.0
  0
LINE
  5
3FC
  8
7
  6
CONTINUOUS
 10
425.93799454216497
 20
379.96269910854789
 30
0.0
 11
429.12199454216511
 21
380.05169910854801
 31
0.0
  0
LINE
  5
3FD
  8
7
  6
CONTINUOUS
 10
429.12199454216511
 20
380.05169910854801
 30
0.0
 11
432.3049945421651
 21
380.14969910854802
 31
0.0
  0
LINE
  5
3FE
  8
7
  6
CONTINUOUS
 10
432.3049945421651
 20
380.14969910854802
 30
0.0
 11
435.48999454216499
 21
380.2556991085479
 31
0.0
  0
LINE
  5
3FF
  8
7
  6
CONTINUOUS
 10
435.48999454216499
 20
380.2556991085479
 30
0.0
 11
438.57799454216502
 21
380.366699108548
 31
0.0
  0
LINE
  5
400
  8
7
  6
CONTINUOUS
 10
438.57799454216502
 20
380.366699108548
 30
0.0
 11
441.664994542165
 21
380.48569910854792
 31
0.0
  0
LINE
  5
401
  8
7
  6
CONTINUOUS
 10
441.664994542165
 20
380.48569910854792
 30
0.0
 11
444.75099454216502
 21
380.61369910854802
 31
0.0
  0
LINE
  5
402
  8
7
  6
CONTINUOUS
 10
444.75099454216502
 20
380.61369910854802
 30
0.0
 11
447.83699454216509
 21
380.75269910854797
 31
0.0
  0
LINE
  5
403
  8
7
  6
CONTINUOUS
 10
447.83699454216509
 20
380.75269910854797
 30
0.0
 11
450.79199454216501
 21
380.895699108548
 31
0.0
  0
LINE
  5
404
  8
7
  6
CONTINUOUS
 10
450.79199454216501
 20
380.895699108548
 30
0.0
 11
453.74499454216499
 21
381.04769910854787
 31
0.0
  0
LINE
  5
405
  8
7
  6
CONTINUOUS
 10
453.74499454216499
 20
381.04769910854787
 30
0.0
 11
456.69699454216499
 21
381.21069910854789
 31
0.0
  0
LINE
  5
406
  8
7
  6
CONTINUOUS
 10
456.69699454216499
 20
381.21069910854789
 30
0.0
 11
459.64999454216502
 21
381.383699108548
 31
0.0
  0
LINE
  5
407
  8
7
  6
CONTINUOUS
 10
459.64999454216502
 20
381.383699108548
 30
0.0
 11
462.43799454216497
 21
381.55669910854789
 31
0.0
  0
LINE
  5
408
  8
7
  6
CONTINUOUS
 10
462.43799454216497
 20
381.55669910854789
 30
0.0
 11
465.22499454216501
 21
381.74069910854791
 31
0.0
  0
LINE
  5
409
  8
7
  6
CONTINUOUS
 10
465.22499454216501
 20
381.74069910854791
 30
0.0
 11
468.01099454216512
 21
381.93569910854802
 31
0.0
  0
LINE
  5
40A
  8
7
  6
CONTINUOUS
 10
468.01099454216512
 20
381.93569910854802
 30
0.0
 11
470.79799454216499
 21
382.14369910854788
 31
0.0
  0
LINE
  5
40B
  8
7
  6
CONTINUOUS
 10
470.79799454216499
 20
382.14369910854788
 30
0.0
 11
473.38599454216512
 21
382.34869910854798
 31
0.0
  0
LINE
  5
40C
  8
7
  6
CONTINUOUS
 10
473.38599454216512
 20
382.34869910854798
 30
0.0
 11
475.97199454216502
 21
382.56769910854791
 31
0.0
  0
LINE
  5
40D
  8
7
  6
CONTINUOUS
 10
475.97199454216502
 20
382.56769910854791
 30
0.0
 11
478.55599454216508
 21
382.80469910854788
 31
0.0
  0
LINE
  5
40E
  8
7
  6
CONTINUOUS
 10
478.55599454216508
 20
382.80469910854788
 30
0.0
 11
481.13999454216503
 21
383.06269910854792
 31
0.0
  0
LINE
  5
40F
  8
7
  6
CONTINUOUS
 10
481.13999454216503
 20
383.06269910854792
 30
0.0
 11
483.51799454216501
 21
383.31969910854798
 31
0.0
  0
LINE
  5
410
  8
7
  6
CONTINUOUS
 10
483.51799454216501
 20
383.31969910854798
 30
0.0
 11
485.89299454216513
 21
383.59569910854788
 31
0.0
  0
LINE
  5
411
  8
7
  6
CONTINUOUS
 10
485.89299454216513
 20
383.59569910854788
 30
0.0
 11
488.265994542165
 21
383.89069910854801
 31
0.0
  0
LINE
  5
412
  8
7
  6
CONTINUOUS
 10
488.265994542165
 20
383.89069910854801
 30
0.0
 11
490.63699454216498
 21
384.2026991085479
 31
0.0
  0
LINE
  5
413
  8
7
  6
CONTINUOUS
 10
490.63699454216498
 20
384.2026991085479
 30
0.0
 11
492.80899454216512
 21
384.50369910854789
 31
0.0
  0
LINE
  5
414
  8
7
  6
CONTINUOUS
 10
492.80899454216512
 20
384.50369910854789
 30
0.0
 11
494.97699454216507
 21
384.81669910854788
 31
0.0
  0
LINE
  5
415
  8
7
  6
CONTINUOUS
 10
494.97699454216507
 20
384.81669910854788
 30
0.0
 11
497.14399454216499
 21
385.14069910854801
 31
0.0
  0
LINE
  5
416
  8
7
  6
CONTINUOUS
 10
497.14399454216499
 20
385.14069910854801
 30
0.0
 11
499.3099945421651
 21
385.47569910854799
 31
0.0
  0
LINE
  5
417
  8
7
  6
CONTINUOUS
 10
499.3099945421651
 20
385.47569910854799
 30
0.0
 11
501.23999454216499
 21
385.78069910854799
 31
0.0
  0
LINE
  5
418
  8
7
  6
CONTINUOUS
 10
501.23999454216499
 20
385.78069910854799
 30
0.0
 11
503.16799454216499
 21
386.09569910854788
 31
0.0
  0
LINE
  5
419
  8
7
  6
CONTINUOUS
 10
503.16799454216499
 20
386.09569910854788
 30
0.0
 11
505.09399454216498
 21
386.42269910854787
 31
0.0
  0
LINE
  5
41A
  8
7
  6
CONTINUOUS
 10
505.09399454216498
 20
386.42269910854787
 30
0.0
 11
507.01799454216501
 21
386.76469910854792
 31
0.0
  0
LINE
  5
41B
  8
7
  6
CONTINUOUS
 10
507.01799454216501
 20
386.76469910854792
 30
0.0
 11
508.6899945421651
 21
387.07569910854801
 31
0.0
  0
LINE
  5
41C
  8
7
  6
CONTINUOUS
 10
508.6899945421651
 20
387.07569910854801
 30
0.0
 11
510.35899454216502
 21
387.39869910854787
 31
0.0
  0
LINE
  5
41D
  8
7
  6
CONTINUOUS
 10
510.35899454216502
 20
387.39869910854787
 30
0.0
 11
512.02599454216499
 21
387.73269910854799
 31
0.0
  0
LINE
  5
41E
  8
7
  6
CONTINUOUS
 10
512.02599454216499
 20
387.73269910854799
 30
0.0
 11
513.69199454216505
 21
388.07569910854801
 31
0.0
  0
LINE
  5
41F
  8
7
  6
CONTINUOUS
 10
513.69199454216505
 20
388.07569910854801
 30
0.0
 11
515.10199454216502
 21
388.37269910854798
 31
0.0
  0
LINE
  5
420
  8
7
  6
CONTINUOUS
 10
515.10199454216502
 20
388.37269910854798
 30
0.0
 11
516.51099454216512
 21
388.67169910854801
 31
0.0
  0
LINE
  5
421
  8
7
  6
CONTINUOUS
 10
516.51099454216512
 20
388.67169910854801
 30
0.0
 11
517.91999454216489
 21
388.967699108548
 31
0.0
  0
LINE
  5
422
  8
7
  6
CONTINUOUS
 10
517.91999454216489
 20
388.967699108548
 30
0.0
 11
519.32999454216497
 21
389.25969910854792
 31
0.0
  0
LINE
  5
423
  8
7
  6
CONTINUOUS
 10
519.32999454216497
 20
389.25969910854792
 30
0.0
 11
520.43699454216505
 21
389.4816991085479
 31
0.0
  0
LINE
  5
424
  8
7
  6
CONTINUOUS
 10
520.43699454216505
 20
389.4816991085479
 30
0.0
 11
521.54599454216486
 21
389.69669910854788
 31
0.0
  0
LINE
  5
425
  8
7
  6
CONTINUOUS
 10
521.54599454216486
 20
389.69669910854788
 30
0.0
 11
522.65699454216497
 21
389.90369910854793
 31
0.0
  0
LINE
  5
426
  8
7
  6
CONTINUOUS
 10
522.65699454216497
 20
389.90369910854793
 30
0.0
 11
523.76999454216514
 21
390.10069910854787
 31
0.0
  0
LINE
  5
427
  8
7
  6
CONTINUOUS
 10
523.76999454216514
 20
390.10069910854787
 30
0.0
 11
524.496994542165
 21
390.22169910854791
 31
0.0
  0
LINE
  5
428
  8
7
  6
CONTINUOUS
 10
524.496994542165
 20
390.22169910854791
 30
0.0
 11
525.22499454216506
 21
390.33169910854792
 31
0.0
  0
LINE
  5
429
  8
7
  6
CONTINUOUS
 10
525.22499454216506
 20
390.33169910854792
 30
0.0
 11
525.95499454216497
 21
390.42369910854802
 31
0.0
  0
LINE
  5
42A
  8
7
  6
CONTINUOUS
 10
525.95499454216497
 20
390.42369910854802
 30
0.0
 11
526.68699454216505
 21
390.48969910854788
 31
0.0
  0
LINE
  5
42B
  8
7
  6
CONTINUOUS
 10
526.68699454216505
 20
390.48969910854788
 30
0.0
 11
526.94499454216509
 21
390.5056991085479
 31
0.0
  0
LINE
  5
42C
  8
7
  6
CONTINUOUS
 10
526.94499454216509
 20
390.5056991085479
 30
0.0
 11
527.20299454216513
 21
390.51869910854788
 31
0.0
  0
LINE
  5
42D
  8
7
  6
CONTINUOUS
 10
527.20299454216513
 20
390.51869910854788
 30
0.0
 11
527.46199454216514
 21
390.52969910854802
 31
0.0
  0
LINE
  5
42E
  8
7
  6
CONTINUOUS
 10
527.46199454216514
 20
390.52969910854802
 30
0.0
 11
527.71999454216495
 21
390.53969910854789
 31
0.0
  0
LINE
  5
42F
  8
7
  6
CONTINUOUS
 10
527.71999454216495
 20
390.53969910854789
 30
0.0
 11
527.71999454216495
 21
390.53969910854789
 31
0.0
  0
LINE
  5
431
  8
0
 10
527.71999454216495
 20
391.9307081720558
 30
0.0
 11
527.71999454216495
 21
390.53969910854789
 31
0.0
  0
LINE
  5
432
  8
0
 10
293.51891670503619
 20
401.27743644063088
 30
0.0
 11
293.51891670503619
 21
400.37765914584958
 31
0.0
  0
ARC
  5
433
  8
0
 10
325.20138736497648
 20
-258.54960655168293
 30
0.0
 40
660.58724299754567
 50
92.749021462513255
 51
103.8199854235495
  0
LINE
  5
438
  8
0
 10
517.38092009778586
 20
320.44079744407492
 30
0.0
 11
977.65748157879398
 21
339.8352206587337
 31
0.0
  0
LINE
  5
439
  8
0
 10
977.40546871165088
 20
361.02740940082708
 30
0.0
 11
977.65748157879398
 21
339.8352206587337
 31
0.0
  0
LINE
  5
43A
  8
0
 10
977.40546871165088
 20
361.02740940082708
 30
0.0
 11
877.40546871165088
 21
361.02740940082708
 31
0.0
  0
LINE
  5
43B
  8
0
 10
877.40546871165088
 20
361.02740940082708
 30
0.0
 11
877.40546871165088
 21
367.89961242857743
 31
0.0
  0
LINE
  5
441
  8
0
 10
167.4054687116506
 20
244.6312225013221
 30
0.0
 11
167.4054687116506
 21
218.6312225013221
 31
0.0
  0
LINE
  5
442
  8
0
 10
167.4054687116506
 20
244.6312225013221
 30
0.0
 11
167.4054687116506
 21
270.6312225013221
 31
0.0
  0
LINE
  5
448
  8
0
 10
167.4054687116506
 20
270.6312225013221
 30
0.0
 11
267.39908474525072
 21
277.6312225013221
 31
0.0
  0
LINE
  5
449
  8
0
 10
317.11828554660042
 20
277.6312225013221
 30
0.0
 11
527.71999454216495
 21
277.6312225013221
 31
0.0
  0
LINE
  5
44A
  8
0
 10
167.4054687116506
 20
218.6312225013221
 30
0.0
 11
267.39908474525072
 21
211.6312225013221
 31
0.0
  0
LINE
  5
44B
  8
0
 10
317.11828554660042
 20
211.6312225013221
 30
0.0
 11
527.71999454216495
 21
211.6312225013221
 31
0.0
  0
LINE
  5
44D
  8
0
 10
877.40546871165088
 20
257.6312225013221
 30
0.0
 11
977.6574815787942
 21
257.6312225013221
 31
0.0
  0
LINE
  5
44E
  8
0
 10
877.40546871165088
 20
231.6312225013221
 30
0.0
 11
977.6574815787942
 21
231.6312225013221
 31
0.0
  0
LINE
  5
44F
  8
0
 10
527.71999454216495
 20
277.6312225013221
 30
0.0
 11
877.40546871165088
 21
257.6312225013221
 31
0.0
  0
LINE
  5
450
  8
0
 10
527.71999454216495
 20
211.6312225013221
 30
0.0
 11
877.40546871165088
 21
231.6312225013221
 31
0.0
  0
LINE
  5
452
  8
0
 10
977.6574815787942
 20
257.6312225013221
 30
0.0
 11
977.6574815787942
 21
231.6312225013221
 31
0.0
  0
LINE
  5
453
  8
0
 10
263.90834515694058
 20
259.6312225013221
 30
0.0
 11
263.90834515694058
 21
229.6312225013221
 31
0.0
  0
LINE
  5
455
  8
0
 10
531.72149741698695
 20
259.60575366120833
 30
0.0
 11
531.72149741698695
 21
229.6057536612083
 31
0.0
  0
LINE
  5
456
  8
0
 10
527.72160558364476
 20
259.60575366120833
 30
0.0
 11
527.72160558364476
 21
229.6057536612083
 31
0.0
  0
LINE
  5
457
  8
0
 10
734.46260103662587
 20
259.6312225013221
 30
0.0
 11
734.46260103662587
 21
229.6312225013221
 31
0.0
  0
LINE
  5
458
  8
0
 10
738.46260103662621
 20
259.6312225013221
 30
0.0
 11
738.46260103662644
 21
229.6312225013221
 31
0.0
  0
LINE
  5
45A
  8
0
 10
263.9083451569407
 20
259.6312225013221
 30
0.0
 11
267.9082369902826
 21
259.6312225013221
 31
0.0
  0
LINE
  5
45B
  8
0
 10
263.9083451569407
 20
229.6312225013221
 30
0.0
 11
267.9082369902826
 21
229.6312225013221
 31
0.0
  0
LINE
  5
45C
  8
0
 10
734.46260103662587
 20
229.6312225013221
 30
0.0
 11
738.46260103662644
 21
229.6312225013221
 31
0.0
  0
LINE
  5
45D
  8
0
 10
734.46260103662587
 20
259.6312225013221
 30
0.0
 11
738.46260103662621
 21
259.6312225013221
 31
0.0
  0
LINE
  5
45E
  8
0
 10
527.72160558364499
 20
259.60575366120833
 30
0.0
 11
531.72149741698684
 21
259.60575366120833
 31
0.0
  0
LINE
  5
45F
  8
0
 10
527.72160558364499
 20
229.6057536612083
 30
0.0
 11
531.72149741698684
 21
229.6057536612083
 31
0.0
  0
LINE
  5
464
  8
0
 10
386.41718410125901
 20
101.0505404592632
 30
0.0
 11
736.10265827074466
 21
121.0505404592632
 31
0.0
  0
LINE
  5
465
  8
0
 10
386.41718410125901
 20
167.05054045926309
 30
0.0
 11
736.10265827074466
 21
147.0505404592632
 31
0.0
  0
LINE
  5
466
  8
0
 10
386.41718410125901
 20
167.05054045926309
 30
0.0
 11
386.41718410125901
 21
101.0505404592632
 31
0.0
  0
LINE
  5
467
  8
0
 10
736.10265827074466
 20
147.0505404592632
 30
0.0
 11
736.10265827074466
 21
121.0505404592632
 31
0.0
  0
LINE
  5
468
  8
0
 10
396.41718410125901
 20
156.46225535462631
 30
0.0
 11
561.93387826070079
 21
146.99565142705109
 31
0.0
  0
LINE
  5
469
  8
0
 10
396.41718410125901
 20
111.6388255639001
 30
0.0
 11
561.93387826070079
 21
121.10542949147521
 31
0.0
  0
LINE
  5
46A
  8
0
 10
396.41718410125901
 20
156.46225535462631
 30
0.0
 11
396.41718410125901
 21
111.6388255639001
 31
0.0
  0
LINE
  5
46B
  8
0
 10
561.93387826070091
 20
146.99565142705109
 30
0.0
 11
561.93387826070091
 21
121.10542949147521
 31
0.0
  0
LINE
  5
46D
  8
0
 10
262.73804055895289
 20
102.5996019503341
 30
0.0
 11
288.8578725187383
 21
102.5996019503341
 31
0.0
  0
LINE
  5
46E
  8
0
 10
262.73804055895289
 20
168.59960195033409
 30
0.0
 11
288.8578725187383
 21
168.59960195033409
 31
0.0
  0
LINE
  5
46F
  8
0
 10
162.7444245253528
 20
161.59960195033409
 30
0.0
 11
262.73804055895289
 21
168.59960195033409
 31
0.0
  0
LINE
  5
470
  8
0
 10
162.7444245253528
 20
109.5996019503341
 30
0.0
 11
262.73804055895289
 21
102.5996019503341
 31
0.0
  0
LINE
  5
471
  8
0
 10
162.7444245253528
 20
135.59960195033409
 30
0.0
 11
162.7444245253528
 21
161.59960195033409
 31
0.0
  0
LINE
  5
472
  8
0
 10
162.7444245253528
 20
135.59960195033409
 30
0.0
 11
162.7444245253528
 21
109.5996019503341
 31
0.0
  0
LINE
  5
473
  8
0
 10
288.8578725187383
 20
168.59960195033409
 30
0.0
 11
288.8578725187383
 21
102.5996019503341
 31
0.0
  0
LINE
  5
491
  8
0
 10
-100.503830151599
 20
64.659854056769291
 30
0.0
 11
-100.503830151599
 21
88.612860599016074
 31
0.0
  0
LINE
  5
492
  8
0
 10
-34.992564894624252
 20
64.659854056769291
 30
0.0
 11
-34.992564894624252
 21
88.612860599016074
 31
0.0
  0
LINE
  5
493
  8
0
 10
-52.748197523111571
 20
61.659854056769291
 30
0.0
 11
-52.748197523111571
 21
64.659854056769348
 31
0.0
  0
LINE
  5
495
  8
0
 10
-82.748197523111585
 20
61.659854056769291
 30
0.0
 11
-82.748197523111585
 21
64.659854056769348
 31
0.0
  0
LINE
  5
496
  8
0
 10
-52.748197523111571
 20
61.659854056769291
 30
0.0
 11
-82.748197523111685
 21
61.659854056769291
 31
0.0
  0
LINE
  5
497
  8
0
 10
-34.992564894624252
 20
64.659854056769291
 30
0.0
 11
-52.748197523111571
 21
64.659854056769291
 31
0.0
  0
LINE
  5
498
  8
0
 10
-82.748197523111685
 20
64.659854056769291
 30
0.0
 11
-100.503830151599
 21
64.659854056769291
 31
0.0
  0
LINE
  5
49B
  8
0
 10
-34.992564894624252
 20
137.24787070352249
 30
0.0
 11
-100.503830151599
 21
137.24787070352249
 31
0.0
  0
LINE
  5
49C
  8
0
 10
-31.992564894624248
 20
113.61286054710691
 30
0.0
 11
-34.992564894624252
 21
113.612860547107
 31
0.0
  0
LINE
  5
49D
  8
0
 10
-31.992564894624248
 20
88.612860599016074
 30
0.0
 11
-34.992564894624252
 21
88.612860599016074
 31
0.0
  0
LINE
  5
49E
  8
0
 10
-103.503830151599
 20
88.612860599016017
 30
0.0
 11
-103.503830151599
 21
113.612860547107
 31
0.0
  0
LINE
  5
49F
  8
0
 10
-31.992564894624248
 20
88.612860599016074
 30
0.0
 11
-31.992564894624248
 21
113.612860547107
 31
0.0
  0
LINE
  5
4A0
  8
0
 10
-100.503830151599
 20
113.612860547107
 30
0.0
 11
-100.503830151599
 21
137.24787070352249
 31
0.0
  0
LINE
  5
4A1
  8
0
 10
-34.992564894624252
 20
113.612860547107
 30
0.0
 11
-34.992564894624252
 21
137.24787070352249
 31
0.0
  0
LINE
  5
4A2
  8
0
 10
-100.503830151599
 20
88.612860599016074
 30
0.0
 11
-103.503830151599
 21
88.612860599016074
 31
0.0
  0
LINE
  5
4A3
  8
0
 10
-100.503830151599
 20
113.61286054710691
 30
0.0
 11
-103.503830151599
 21
113.61286054710691
 31
0.0
  0
POLYLINE
  5
4AA
  8
LAYER01
  6
CONTINUOUS
 62
     7
 66
     1
 10
0.0
 20
0.0
 30
0.0
 39
140.5320807350918
 70
     1
  0
VERTEX
  5
739
  8
LAYER01
  6
CONTINUOUS
 62
     7
 10
-49.002278497706691
 20
69.961390336304135
 30
0.0
  0
VERTEX
  5
73A
  8
LAYER01
  6
CONTINUOUS
 62
     7
 10
-87.002278497706683
 20
69.961390336304135
 30
0.0
  0
VERTEX
  5
73B
  8
LAYER01
  6
CONTINUOUS
 62
     7
 10
-95.002278497706698
 20
80.961390336304135
 30
0.0
  0
VERTEX
  5
73C
  8
LAYER01
  6
CONTINUOUS
 62
     7
 10
-95.002278497706698
 20
110.96139033630389
 30
0.0
  0
VERTEX
  5
73D
  8
LAYER01
  6
CONTINUOUS
 62
     7
 10
-87.002278497706683
 20
118.96139033630411
 30
0.0
  0
VERTEX
  5
73E
  8
LAYER01
  6
CONTINUOUS
 62
     7
 10
-49.002278497706691
 20
118.96139033630411
 30
0.0
  0
VERTEX
  5
73F
  8
LAYER01
  6
CONTINUOUS
 62
     7
 10
-41.002278497706698
 20
110.96139033630389
 30
0.0
  0
VERTEX
  5
740
  8
LAYER01
  6
CONTINUOUS
 62
     7
 10
-41.002278497706698
 20
80.961390336304135
 30
0.0
  0
SEQEND
  5
741
  8
LAYER01
  6
CONTINUOUS
 62
     7
  0
LINE
  5
4B4
  8
0
 10
-250.58355708917111
 20
72.180872835391256
 30
0.0
 11
-250.58355708917111
 21
98.831657688935138
 31
0.0
  0
LINE
  5
4B5
  8
0
 10
-184.58374137380369
 20
72.180872835391256
 30
0.0
 11
-184.58374137380369
 21
98.831657688935195
 31
0.0
  0
LINE
  5
4B9
  8
0
 10
-202.60911807160119
 20
69.180872835391256
 30
0.0
 11
-232.60911807160119
 21
69.180872835391256
 31
0.0
  0
LINE
  5
4BA
  8
0
 10
-184.58374137380369
 20
72.180872835391256
 30
0.0
 11
-202.60911807160119
 21
72.180872835391256
 31
0.0
  0
LINE
  5
4BB
  8
0
 10
-232.60911807160119
 20
72.180872835391256
 30
0.0
 11
-250.58355708917099
 21
72.180872835391256
 31
0.0
  0
LINE
  5
4BF
  8
0
 10
-181.58374137380369
 20
123.8316576370261
 30
0.0
 11
-184.58374137380369
 21
123.8316576370261
 31
0.0
  0
LINE
  5
4C0
  8
0
 10
-181.58374137380369
 20
98.831657688935138
 30
0.0
 11
-184.58374137380369
 21
98.831657688935138
 31
0.0
  0
LINE
  5
4C1
  8
0
 10
-253.58355708917099
 20
98.831657688935138
 30
0.0
 11
-253.58355708917099
 21
123.8316576370261
 31
0.0
  0
LINE
  5
4C2
  8
0
 10
-181.58374137380369
 20
98.831657688935138
 30
0.0
 11
-181.58374137380369
 21
123.8316576370261
 31
0.0
  0
LINE
  5
4C3
  8
0
 10
-184.58374137380369
 20
123.8316576370261
 30
0.0
 11
-184.5837413738038
 21
140.23506372137729
 31
0.0
  0
LINE
  5
4C6
  8
0
 10
-250.58355708917111
 20
123.8316576370261
 30
0.0
 11
-250.58355708917111
 21
140.23506372137729
 31
0.0
  0
LINE
  5
4C7
  8
0
 10
-250.58355708917111
 20
123.8316576370261
 30
0.0
 11
-253.58355708917099
 21
123.8316576370261
 31
0.0
  0
LINE
  5
4C8
  8
0
 10
-250.58355708917111
 20
98.831657688935138
 30
0.0
 11
-253.58355708917099
 21
98.831657688935138
 31
0.0
  0
LINE
  5
4C9
  8
0
 10
-232.60911807160119
 20
72.180872835391256
 30
0.0
 11
-232.60911807160119
 21
69.180872835391256
 31
0.0
  0
LINE
  5
4CA
  8
0
 10
-202.60911807160119
 20
72.180872835391256
 30
0.0
 11
-202.60911807160119
 21
69.180872835391256
 31
0.0
  0
CIRCLE
  5
4CB
  8
0
 10
-217.2457172170744
 20
107.6083357423351
 30
0.0
 40
24.453326739338081
  0
LINE
  5
4D0
  8
0
 10
-307.17167992530392
 20
83.940796078932635
 30
0.0
 11
-307.17167992530392
 21
98.209771070361228
 31
0.0
  0
LINE
  5
4D3
  8
0
 10
-349.5227014270713
 20
83.940796078932635
 30
0.0
 11
-349.5227014270713
 21
98.209771070361228
 31
0.0
  0
LINE
  5
4D4
  8
0
 10
-307.17167992530392
 20
83.940796078932635
 30
0.0
 11
-313.34719067618749
 21
83.940796078932635
 31
0.0
  0
LINE
  5
4D5
  8
0
 10
-313.34719067618749
 20
80.940796078932635
 30
0.0
 11
-343.34719067618761
 21
80.940796078932635
 31
0.0
  0
LINE
  5
4D6
  8
0
 10
-343.34719067618761
 20
83.940796078932635
 30
0.0
 11
-349.5227014270713
 21
83.940796078932635
 31
0.0
  0
LINE
  5
4DC
  8
0
 10
-304.17167992530381
 20
111.2097710703611
 30
0.0
 11
-307.17167992530392
 21
111.2097710703611
 31
0.0
  0
LINE
  5
4DD
  8
0
 10
-304.17167992530381
 20
98.209771070361228
 30
0.0
 11
-307.17167992530392
 21
98.209771070361228
 31
0.0
  0
LINE
  5
4DF
  8
0
 10
-304.17167992530381
 20
98.209771070361171
 30
0.0
 11
-304.17167992530381
 21
111.2097710703612
 31
0.0
  0
LINE
  5
4E0
  8
0
 10
-352.5227014270713
 20
98.209771070361228
 30
0.0
 11
-352.5227014270713
 21
111.2097710703613
 31
0.0
  0
LINE
  5
4E1
  8
0
 10
-349.5227014270713
 20
111.2097710703612
 30
0.0
 11
-349.5227014270713
 21
126.075882383275
 31
0.0
  0
LINE
  5
4E2
  8
0
 10
-307.17167992530392
 20
111.2097710703612
 30
0.0
 11
-307.17167992530392
 21
126.075882383275
 31
0.0
  0
LINE
  5
4E3
  8
0
 10
-349.5227014270713
 20
126.075882383275
 30
0.0
 11
-307.17167992530392
 21
126.075882383275
 31
0.0
  0
LINE
  5
4E4
  8
0
 10
-313.34719067618749
 20
80.940796078932635
 30
0.0
 11
-313.34719067618749
 21
83.940796078932635
 31
0.0
  0
LINE
  5
4E5
  8
0
 10
-343.34719067618761
 20
80.940796078932635
 30
0.0
 11
-343.34719067618761
 21
83.940796078932635
 31
0.0
  0
LINE
  5
4E6
  8
0
 10
-349.5227014270713
 20
111.2097710703611
 30
0.0
 11
-352.5227014270713
 21
111.2097710703611
 31
0.0
  0
LINE
  5
4E7
  8
0
 10
-349.5227014270713
 20
98.209771070361228
 30
0.0
 11
-352.5227014270713
 21
98.209771070361228
 31
0.0
  0
CIRCLE
  5
4E8
  8
0
 10
-328.34719067618749
 20
104.7097710703611
 30
0.0
 40
13.88989002252606
  0
LINE
  5
4EE
  8
0
 10
-184.58374137380369
 20
140.23506372137729
 30
0.0
 11
-250.58355708917111
 21
140.23506372137729
 31
0.0
  0
LINE
  5
506
  8
0
 10
517.38092009778586
 20
320.44079744407492
 30
0.0
 11
317.11828554660042
 21
320.44079744407492
 31
0.0
  0
LINE
  5
508
  8
0
 10
167.4054687116506
 20
325.91430799647918
 30
0.0
 11
267.11828554660042
 21
320.44079744407492
 31
0.0
  0
LINE
  5
512
  8
0
 10
-188.0250808044739
 20
212.83580229518469
 30
0.0
 11
-188.0250808044739
 21
182.83580229518469
 31
0.0
  0
LINE
  5
524
  8
0
 10
-188.0250808044739
 20
227.83580229518469
 30
0.0
 11
-188.0250808044739
 21
167.83580229518469
 31
0.0
  0
LINE
  5
525
  8
0
 10
-138.815032248156
 20
227.83580229518469
 30
0.0
 11
-138.815032248156
 21
167.83580229518469
 31
0.0
  0
LINE
  5
526
  8
0
 10
-268.8536599012063
 20
232.02836393429149
 30
0.0
 11
-268.8536599012063
 21
172.02836393429149
 31
0.0
  0
LINE
  5
527
  8
0
 10
-219.6436113448884
 20
232.02836393429149
 30
0.0
 11
-219.6436113448884
 21
172.02836393429149
 31
0.0
  0
LINE
  5
52A
  8
0
 10
-268.8536599012063
 20
217.02836393429149
 30
0.0
 11
-268.8536599012063
 21
187.02836393429149
 31
0.0
  0
LINE
  5
52B
  8
0
 10
-268.8536599012063
 20
232.02836393429149
 30
0.0
 11
-259.19023640941771
 21
232.02836393429149
 31
0.0
  0
LINE
  5
52C
  8
0
 10
-268.8536599012063
 20
172.02836393429149
 30
0.0
 11
-259.19023640941771
 21
172.02836393429149
 31
0.0
  0
LINE
  5
52D
  8
0
 10
-259.19023640941771
 20
169.02836393429149
 30
0.0
 11
-228.79023640941759
 21
169.02836393429149
 31
0.0
  0
LINE
  5
52E
  8
0
 10
-259.19023640941771
 20
235.02836393429149
 30
0.0
 11
-228.7902364094177
 21
235.0283639342916
 31
0.0
  0
LINE
  5
530
  8
0
 10
-259.19023640941771
 20
169.02836393429149
 30
0.0
 11
-259.19023640941771
 21
172.02836393429149
 31
0.0
  0
LINE
  5
531
  8
0
 10
-228.7902364094177
 20
169.02836393429149
 30
0.0
 11
-228.7902364094177
 21
172.02836393429149
 31
0.0
  0
LINE
  5
532
  8
0
 10
-228.79023640941759
 20
172.02836393429149
 30
0.0
 11
-219.6436113448884
 21
172.02836393429149
 31
0.0
  0
LINE
  5
535
  8
0
 10
-228.7902364094177
 20
232.02836393429149
 30
0.0
 11
-219.6436113448884
 21
232.02836393429149
 31
0.0
  0
LINE
  5
536
  8
0
 10
-259.19023640941771
 20
232.02836393429149
 30
0.0
 11
-259.19023640941771
 21
235.02836393429149
 31
0.0
  0
LINE
  5
537
  8
0
 10
-228.7902364094177
 20
232.02836393429149
 30
0.0
 11
-228.7902364094177
 21
235.0283639342916
 31
0.0
  0
LINE
  5
538
  8
0
 10
267.11828554660042
 20
320.44079744407492
 30
0.0
 11
317.11828554660042
 21
320.44079744407492
 31
0.0
  0
LINE
  5
53A
  8
0
 10
317.11828554660042
 20
277.63122250132199
 30
0.0
 11
317.11828554660042
 21
211.63122250132221
 31
0.0
  0
LINE
  5
53C
  8
0
 10
267.39908474525072
 20
277.6312225013221
 30
0.0
 11
267.9082369902826
 21
259.6312225013221
 31
0.0
  0
LINE
  5
53D
  8
0
 10
267.9082369902826
 20
229.6312225013221
 30
0.0
 11
267.9082369902826
 21
211.59557956873709
 31
0.0
  0
LINE
  5
53F
  8
0
 10
-19.380976793702871
 20
253.4689411634439
 30
0.0
 11
-9.0402913078439724
 21
253.90466100543881
 31
0.0
  0
LINE
  5
545
  8
0
 10
-19.380976793702871
 20
253.4689411634439
 30
0.0
 11
-219.6436113448884
 21
253.4689411634439
 31
0.0
  0
LINE
  5
546
  8
7
  6
CONTINUOUS
 10
-172.16190234932381
 20
312.77684282791699
 30
0.0
 11
-169.04490234932371
 21
312.7158428279169
 31
0.0
  0
LINE
  5
547
  8
7
  6
CONTINUOUS
 10
-193.22390234932379
 20
313.456842827917
 30
0.0
 11
-190.37890234932379
 21
313.33584282791702
 31
0.0
  0
LINE
  5
548
  8
0
 10
-268.8536599012063
 20
253.46894116344399
 30
0.0
 11
-219.6436113448884
 21
253.4689411634439
 31
0.0
  0
LINE
  5
549
  8
7
  6
CONTINUOUS
 10
-181.3939023493237
 20
313.01484282791699
 30
0.0
 11
-178.3969023493238
 21
312.92884282791698
 31
0.0
  0
LINE
  5
54A
  8
7
  6
CONTINUOUS
 10
-184.3889023493237
 20
313.11184282791709
 30
0.0
 11
-181.3939023493237
 21
313.01484282791699
 31
0.0
  0
LINE
  5
54B
  8
7
  6
CONTINUOUS
 10
-187.38390234932371
 20
313.21784282791708
 30
0.0
 11
-184.3889023493237
 21
313.11184282791709
 31
0.0
  0
LINE
  5
54C
  8
7
  6
CONTINUOUS
 10
-190.37890234932379
 20
313.33584282791702
 30
0.0
 11
-187.38390234932371
 21
313.21784282791708
 31
0.0
  0
LINE
  5
54D
  8
7
  6
CONTINUOUS
 10
-175.2789023493238
 20
312.84784282791702
 30
0.0
 11
-172.16190234932381
 21
312.77684282791699
 31
0.0
  0
LINE
  5
54E
  8
7
  6
CONTINUOUS
 10
-178.3969023493238
 20
312.92884282791698
 30
0.0
 11
-175.2789023493238
 21
312.84784282791702
 31
0.0
  0
LINE
  5
54F
  8
7
  6
CONTINUOUS
 10
-253.84690234932381
 20
320.60084282791689
 30
0.0
 11
-252.82190234932381
 21
320.259842827917
 31
0.0
  0
LINE
  5
551
  8
7
  6
CONTINUOUS
 10
-255.5469023493238
 20
321.26784282791698
 30
0.0
 11
-254.8439023493238
 21
320.97484282791692
 31
0.0
  0
LINE
  5
552
  8
7
  6
CONTINUOUS
 10
-254.8439023493238
 20
320.97484282791692
 30
0.0
 11
-253.84690234932381
 21
320.60084282791689
 31
0.0
  0
LINE
  5
553
  8
7
  6
CONTINUOUS
 10
-256.2429023493238
 20
321.586842827917
 30
0.0
 11
-255.5469023493238
 21
321.26784282791698
 31
0.0
  0
LINE
  5
554
  8
7
  6
CONTINUOUS
 10
-256.94590234932377
 20
321.937842827917
 30
0.0
 11
-256.2429023493238
 21
321.586842827917
 31
0.0
  0
LINE
  5
555
  8
7
  6
CONTINUOUS
 10
-257.66890234932379
 20
322.32784282791698
 30
0.0
 11
-256.94590234932377
 21
321.937842827917
 31
0.0
  0
LINE
  5
556
  8
7
  6
CONTINUOUS
 10
-258.10390234932379
 20
322.58084282791691
 30
0.0
 11
-257.66890234932379
 21
322.32784282791698
 31
0.0
  0
LINE
  5
557
  8
7
  6
CONTINUOUS
 10
-258.5069023493237
 20
322.86284282791712
 30
0.0
 11
-258.10390234932379
 21
322.58084282791691
 31
0.0
  0
LINE
  5
558
  8
7
  6
CONTINUOUS
 10
-258.83390234932381
 20
323.18684282791702
 30
0.0
 11
-258.5069023493237
 21
322.86284282791712
 31
0.0
  0
LINE
  5
559
  8
7
  6
CONTINUOUS
 10
-259.04190234932378
 20
323.56784282791699
 30
0.0
 11
-258.83390234932381
 21
323.18684282791702
 31
0.0
  0
LINE
  5
566
  8
7
  6
CONTINUOUS
 10
-212.3969023493238
 20
314.56484282791712
 30
0.0
 11
-209.73590234932379
 21
314.37884282791691
 31
0.0
  0
LINE
  5
567
  8
7
  6
CONTINUOUS
 10
-232.94890234932379
 20
316.50384282791691
 30
0.0
 11
-231.00890234932379
 21
316.27284282791692
 31
0.0
  0
LINE
  5
568
  8
7
  6
CONTINUOUS
 10
-243.70890234932381
 20
318.10484282791703
 30
0.0
 11
-242.0619023493237
 21
317.812842827917
 31
0.0
  0
LINE
  5
569
  8
7
  6
CONTINUOUS
 10
-245.34890234932379
 20
318.4178428279169
 30
0.0
 11
-243.70890234932381
 21
318.10484282791703
 31
0.0
  0
LINE
  5
56A
  8
7
  6
CONTINUOUS
 10
-246.69790234932381
 20
318.69384282791702
 30
0.0
 11
-245.34890234932379
 21
318.4178428279169
 31
0.0
  0
LINE
  5
56B
  8
7
  6
CONTINUOUS
 10
-248.04190234932381
 20
318.98984282791702
 30
0.0
 11
-246.69790234932381
 21
318.69384282791702
 31
0.0
  0
LINE
  5
56C
  8
7
  6
CONTINUOUS
 10
-249.38390234932371
 20
319.307842827917
 30
0.0
 11
-248.04190234932381
 21
318.98984282791702
 31
0.0
  0
LINE
  5
56D
  8
7
  6
CONTINUOUS
 10
-250.72690234932381
 20
319.653842827917
 30
0.0
 11
-249.38390234932371
 21
319.307842827917
 31
0.0
  0
LINE
  5
56E
  8
7
  6
CONTINUOUS
 10
-251.7789023493238
 20
319.94484282791689
 30
0.0
 11
-250.72690234932381
 21
319.653842827917
 31
0.0
  0
LINE
  5
56F
  8
7
  6
CONTINUOUS
 10
-252.82190234932381
 20
320.259842827917
 30
0.0
 11
-251.7789023493238
 21
319.94484282791689
 31
0.0
  0
LINE
  5
570
  8
7
  6
CONTINUOUS
 10
-234.8869023493238
 20
316.74784282791711
 30
0.0
 11
-232.94890234932379
 21
316.50384282791691
 31
0.0
  0
LINE
  5
571
  8
7
  6
CONTINUOUS
 10
-236.82190234932369
 20
317.00784282791699
 30
0.0
 11
-234.8869023493238
 21
316.74784282791711
 31
0.0
  0
LINE
  5
572
  8
7
  6
CONTINUOUS
 10
-238.75690234932381
 20
317.2868428279171
 30
0.0
 11
-236.82190234932369
 21
317.00784282791699
 31
0.0
  0
LINE
  5
573
  8
7
  6
CONTINUOUS
 10
-240.41090234932381
 20
317.54184282791692
 30
0.0
 11
-238.75690234932381
 21
317.2868428279171
 31
0.0
  0
LINE
  5
574
  8
7
  6
CONTINUOUS
 10
-242.0619023493237
 20
317.812842827917
 30
0.0
 11
-240.41090234932381
 21
317.54184282791692
 31
0.0
  0
LINE
  5
575
  8
7
  6
CONTINUOUS
 10
-224.39490234932379
 20
315.57184282791701
 30
0.0
 11
-222.1869023493237
 21
315.36284282791712
 31
0.0
  0
LINE
  5
576
  8
7
  6
CONTINUOUS
 10
-226.60090234932369
 20
315.79184282791692
 30
0.0
 11
-224.39490234932379
 21
315.57184282791701
 31
0.0
  0
LINE
  5
577
  8
7
  6
CONTINUOUS
 10
-228.80590234932379
 20
316.02584282791707
 30
0.0
 11
-226.60090234932369
 21
315.79184282791692
 31
0.0
  0
LINE
  5
578
  8
7
  6
CONTINUOUS
 10
-231.00890234932379
 20
316.27284282791692
 30
0.0
 11
-228.80590234932379
 21
316.02584282791707
 31
0.0
  0
LINE
  5
579
  8
7
  6
CONTINUOUS
 10
-214.84590234932369
 20
314.74684282791708
 30
0.0
 11
-212.3969023493238
 21
314.56484282791712
 31
0.0
  0
LINE
  5
57A
  8
7
  6
CONTINUOUS
 10
-217.29390234932379
 20
314.939842827917
 30
0.0
 11
-214.84590234932369
 21
314.74684282791708
 31
0.0
  0
LINE
  5
57B
  8
7
  6
CONTINUOUS
 10
-219.74090234932379
 20
315.14484282791699
 30
0.0
 11
-217.29390234932379
 21
314.939842827917
 31
0.0
  0
LINE
  5
57C
  8
7
  6
CONTINUOUS
 10
-222.1869023493237
 20
315.36284282791712
 30
0.0
 11
-219.74090234932379
 21
315.14484282791699
 31
0.0
  0
LINE
  5
587
  8
7
  6
CONTINUOUS
 10
-201.75190234932381
 20
313.88584282791697
 30
0.0
 11
-198.9089023493238
 21
313.73184282791698
 31
0.0
  0
LINE
  5
588
  8
7
  6
CONTINUOUS
 10
-204.4149023493238
 20
314.03984282791703
 30
0.0
 11
-201.75190234932381
 21
313.88584282791697
 31
0.0
  0
LINE
  5
589
  8
7
  6
CONTINUOUS
 10
-207.0759023493238
 20
314.20384282791701
 30
0.0
 11
-204.4149023493238
 21
314.03984282791703
 31
0.0
  0
LINE
  5
58A
  8
7
  6
CONTINUOUS
 10
-209.73590234932379
 20
314.37884282791691
 30
0.0
 11
-207.0759023493238
 21
314.20384282791701
 31
0.0
  0
LINE
  5
58B
  8
7
  6
CONTINUOUS
 10
-196.0669023493237
 20
313.58984282791693
 30
0.0
 11
-193.22390234932379
 21
313.456842827917
 31
0.0
  0
LINE
  5
58C
  8
7
  6
CONTINUOUS
 10
-198.9089023493238
 20
313.73184282791698
 30
0.0
 11
-196.0669023493237
 21
313.58984282791693
 31
0.0
  0
LINE
  5
58D
  8
7
  6
CONTINUOUS
 10
-98.183902349323773
 20
313.39484282791699
 30
0.0
 11
-95.096902349323784
 21
313.5138428279169
 31
0.0
  0
LINE
  5
58E
  8
7
  6
CONTINUOUS
 10
-130.2669023493238
 20
312.61784282791689
 30
0.0
 11
-126.9969023493238
 21
312.66084282791712
 31
0.0
  0
LINE
  5
58F
  8
7
  6
CONTINUOUS
 10
-149.84490234932369
 20
312.52184282791688
 30
0.0
 11
-146.5889023493238
 21
312.51784282791698
 31
0.0
  0
LINE
  5
590
  8
7
  6
CONTINUOUS
 10
-162.7199023493238
 20
312.61784282791689
 30
0.0
 11
-159.51490234932379
 21
312.581842827917
 31
0.0
  0
LINE
  5
591
  8
7
  6
CONTINUOUS
 10
-165.92690234932371
 20
312.66284282791702
 30
0.0
 11
-162.7199023493238
 21
312.61784282791689
 31
0.0
  0
LINE
  5
592
  8
7
  6
CONTINUOUS
 10
-169.04490234932371
 20
312.7158428279169
 30
0.0
 11
-165.92690234932371
 21
312.66284282791702
 31
0.0
  0
LINE
  5
593
  8
7
  6
CONTINUOUS
 10
-153.10190234932381
 20
312.53384282791689
 30
0.0
 11
-149.84490234932369
 21
312.52184282791688
 31
0.0
  0
LINE
  5
594
  8
7
  6
CONTINUOUS
 10
-156.3089023493238
 20
312.55384282791698
 30
0.0
 11
-153.10190234932381
 21
312.53384282791689
 31
0.0
  0
LINE
  5
595
  8
7
  6
CONTINUOUS
 10
-159.51490234932379
 20
312.581842827917
 30
0.0
 11
-156.3089023493238
 21
312.55384282791698
 31
0.0
  0
LINE
  5
596
  8
7
  6
CONTINUOUS
 10
-140.07690234932369
 20
312.53284282791691
 30
0.0
 11
-136.80590234932379
 21
312.552842827917
 31
0.0
  0
LINE
  5
597
  8
7
  6
CONTINUOUS
 10
-143.33390234932381
 20
312.52084282791702
 30
0.0
 11
-140.07690234932369
 21
312.53284282791691
 31
0.0
  0
LINE
  5
598
  8
7
  6
CONTINUOUS
 10
-146.5889023493238
 20
312.51784282791698
 30
0.0
 11
-143.33390234932381
 21
312.52084282791702
 31
0.0
  0
LINE
  5
599
  8
7
  6
CONTINUOUS
 10
-133.53690234932381
 20
312.58084282791691
 30
0.0
 11
-130.2669023493238
 21
312.61784282791689
 31
0.0
  0
LINE
  5
59A
  8
7
  6
CONTINUOUS
 10
-136.80590234932379
 20
312.552842827917
 30
0.0
 11
-133.53690234932381
 21
312.58084282791691
 31
0.0
  0
LINE
  5
59B
  8
7
  6
CONTINUOUS
 10
-110.8239023493238
 20
312.99084282791699
 30
0.0
 11
-107.63990234932371
 21
313.07984282791688
 31
0.0
  0
LINE
  5
59C
  8
7
  6
CONTINUOUS
 10
-120.5029023493238
 20
312.76984282791699
 30
0.0
 11
-117.25690234932379
 21
312.83584282791702
 31
0.0
  0
LINE
  5
59D
  8
7
  6
CONTINUOUS
 10
-123.7489023493237
 20
312.711842827917
 30
0.0
 11
-120.5029023493238
 21
312.76984282791699
 31
0.0
  0
LINE
  5
59E
  8
7
  6
CONTINUOUS
 10
-126.9969023493238
 20
312.66084282791712
 30
0.0
 11
-123.7489023493237
 21
312.711842827917
 31
0.0
  0
LINE
  5
59F
  8
7
  6
CONTINUOUS
 10
-114.00890234932371
 20
312.90984282791709
 30
0.0
 11
-110.8239023493238
 21
312.99084282791699
 31
0.0
  0
LINE
  5
5A0
  8
7
  6
CONTINUOUS
 10
-117.25690234932379
 20
312.83584282791702
 30
0.0
 11
-114.00890234932371
 21
312.90984282791709
 31
0.0
  0
LINE
  5
5A1
  8
7
  6
CONTINUOUS
 10
-101.2719023493238
 20
313.28384282791689
 30
0.0
 11
-98.183902349323773
 21
313.39484282791699
 31
0.0
  0
LINE
  5
5A2
  8
7
  6
CONTINUOUS
 10
-104.4569023493237
 20
313.177842827917
 30
0.0
 11
-101.2719023493238
 21
313.28384282791689
 31
0.0
  0
LINE
  5
5A3
  8
7
  6
CONTINUOUS
 10
-107.63990234932371
 20
313.07984282791688
 30
0.0
 11
-104.4569023493237
 21
313.177842827917
 31
0.0
  0
LINE
  5
5A4
  8
7
  6
CONTINUOUS
 10
-88.924902349323759
 20
313.78084282791701
 30
0.0
 11
-85.969902349323775
 21
313.92384282791699
 31
0.0
  0
LINE
  5
5A5
  8
7
  6
CONTINUOUS
 10
-92.010902349323828
 20
313.64184282791712
 30
0.0
 11
-88.924902349323759
 21
313.78084282791701
 31
0.0
  0
LINE
  5
5A6
  8
7
  6
CONTINUOUS
 10
-95.096902349323784
 20
313.5138428279169
 30
0.0
 11
-92.010902349323828
 21
313.64184282791712
 31
0.0
  0
LINE
  5
5A7
  8
7
  6
CONTINUOUS
 10
-46.124902349323747
 20
317.230842827917
 30
0.0
 11
-43.952902349323722
 21
317.53184282791688
 31
0.0
  0
LINE
  5
5A8
  8
7
  6
CONTINUOUS
 10
-68.750902349323781
 20
314.96384282791689
 30
0.0
 11
-65.963902349323803
 21
315.17184282791709
 31
0.0
  0
LINE
  5
5A9
  8
7
  6
CONTINUOUS
 10
-77.111902349323771
 20
314.41184282791698
 30
0.0
 11
-74.323902349323816
 21
314.58484282791699
 31
0.0
  0
LINE
  5
5AA
  8
7
  6
CONTINUOUS
 10
-80.064902349323802
 20
314.23884282791698
 30
0.0
 11
-77.111902349323771
 21
314.41184282791698
 31
0.0
  0
LINE
  5
5AB
  8
7
  6
CONTINUOUS
 10
-83.0169023493238
 20
314.07584282791697
 30
0.0
 11
-80.064902349323802
 21
314.23884282791698
 31
0.0
  0
LINE
  5
5AC
  8
7
  6
CONTINUOUS
 10
-85.969902349323775
 20
313.92384282791699
 30
0.0
 11
-83.0169023493238
 21
314.07584282791697
 31
0.0
  0
LINE
  5
5AD
  8
7
  6
CONTINUOUS
 10
-71.536902349323782
 20
314.76884282791701
 30
0.0
 11
-68.750902349323781
 21
314.96384282791689
 31
0.0
  0
LINE
  5
5AE
  8
7
  6
CONTINUOUS
 10
-74.323902349323816
 20
314.58484282791699
 30
0.0
 11
-71.536902349323782
 21
314.76884282791701
 31
0.0
  0
LINE
  5
5AF
  8
7
  6
CONTINUOUS
 10
-58.205902349323758
 20
315.83284282791698
 30
0.0
 11
-55.621902349323818
 21
316.0908428279169
 31
0.0
  0
LINE
  5
5B0
  8
7
  6
CONTINUOUS
 10
-60.789902349323761
 20
315.59584282791701
 30
0.0
 11
-58.205902349323758
 21
315.83284282791698
 31
0.0
  0
LINE
  5
5B1
  8
7
  6
CONTINUOUS
 10
-63.375902349323781
 20
315.37684282791702
 30
0.0
 11
-60.789902349323761
 21
315.59584282791701
 31
0.0
  0
LINE
  5
5B2
  8
7
  6
CONTINUOUS
 10
-65.963902349323803
 20
315.17184282791709
 30
0.0
 11
-63.375902349323781
 21
315.37684282791702
 31
0.0
  0
LINE
  5
5B3
  8
7
  6
CONTINUOUS
 10
-48.495902349323778
 20
316.91884282791699
 30
0.0
 11
-46.124902349323747
 21
317.230842827917
 31
0.0
  0
LINE
  5
5B4
  8
7
  6
CONTINUOUS
 10
-50.868902349323768
 20
316.62384282791697
 30
0.0
 11
-48.495902349323778
 21
316.91884282791699
 31
0.0
  0
LINE
  5
5B5
  8
7
  6
CONTINUOUS
 10
-53.243902349323768
 20
316.34784282791702
 30
0.0
 11
-50.868902349323768
 21
316.62384282791697
 31
0.0
  0
LINE
  5
5B6
  8
7
  6
CONTINUOUS
 10
-55.621902349323818
 20
316.0908428279169
 30
0.0
 11
-53.243902349323768
 21
316.34784282791702
 31
0.0
  0
LINE
  5
5B7
  8
7
  6
CONTINUOUS
 10
-26.402902349323771
 20
320.42684282791691
 30
0.0
 11
-24.735902349323851
 21
320.76084282791697
 31
0.0
  0
LINE
  5
5B8
  8
7
  6
CONTINUOUS
 10
-35.521902349323803
 20
318.80884282791698
 30
0.0
 11
-33.593902349323798
 21
319.12384282791709
 31
0.0
  0
LINE
  5
5B9
  8
7
  6
CONTINUOUS
 10
-37.451902349323753
 20
318.50384282791691
 30
0.0
 11
-35.521902349323803
 21
318.80884282791698
 31
0.0
  0
LINE
  5
5BA
  8
7
  6
CONTINUOUS
 10
-39.617902349323799
 20
318.16884282791699
 30
0.0
 11
-37.451902349323753
 21
318.50384282791691
 31
0.0
  0
LINE
  5
5BB
  8
7
  6
CONTINUOUS
 10
-41.784902349323772
 20
317.84484282791698
 30
0.0
 11
-39.617902349323799
 21
318.16884282791699
 31
0.0
  0
LINE
  5
5BC
  8
7
  6
CONTINUOUS
 10
-43.952902349323722
 20
317.53184282791688
 30
0.0
 11
-41.784902349323772
 21
317.84484282791698
 31
0.0
  0
LINE
  5
5BD
  8
7
  6
CONTINUOUS
 10
-28.07190234932375
 20
320.10384282791699
 30
0.0
 11
-26.402902349323771
 21
320.42684282791691
 31
0.0
  0
LINE
  5
5BE
  8
7
  6
CONTINUOUS
 10
-29.743902349323779
 20
319.7928428279169
 30
0.0
 11
-28.07190234932375
 21
320.10384282791699
 31
0.0
  0
LINE
  5
5BF
  8
7
  6
CONTINUOUS
 10
-31.66790234932375
 20
319.45084282791697
 30
0.0
 11
-29.743902349323779
 21
319.7928428279169
 31
0.0
  0
LINE
  5
5C0
  8
7
  6
CONTINUOUS
 10
-33.593902349323798
 20
319.12384282791709
 30
0.0
 11
-31.66790234932375
 21
319.45084282791697
 31
0.0
  0
LINE
  5
5C1
  8
7
  6
CONTINUOUS
 10
-24.735902349323851
 20
320.76084282791697
 30
0.0
 11
-23.069902349323801
 21
321.10384282791711
 31
0.0
  0
LINE
  5
5C2
  8
7
  6
CONTINUOUS
 10
-15.215902349323869
 20
322.72484282791692
 30
0.0
 11
-14.10490234932376
 21
322.93184282791702
 31
0.0
  0
LINE
  5
5C3
  8
7
  6
CONTINUOUS
 10
-16.324902349323789
 20
322.509842827917
 30
0.0
 11
-15.215902349323869
 21
322.72484282791692
 31
0.0
  0
LINE
  5
5C4
  8
7
  6
CONTINUOUS
 10
-17.43190234932376
 20
322.28784282791702
 30
0.0
 11
-16.324902349323789
 21
322.509842827917
 31
0.0
  0
LINE
  5
5C5
  8
7
  6
CONTINUOUS
 10
-18.841902349323838
 20
321.99584282791699
 30
0.0
 11
-17.43190234932376
 21
322.28784282791702
 31
0.0
  0
LINE
  5
5C6
  8
7
  6
CONTINUOUS
 10
-20.25090234932372
 20
321.69984282791711
 30
0.0
 11
-18.841902349323838
 21
321.99584282791699
 31
0.0
  0
LINE
  5
5C7
  8
7
  6
CONTINUOUS
 10
-21.659902349323829
 20
321.40084282791707
 30
0.0
 11
-20.25090234932372
 21
321.69984282791711
 31
0.0
  0
LINE
  5
5C8
  8
7
  6
CONTINUOUS
 10
-23.069902349323801
 20
321.10384282791711
 30
0.0
 11
-21.659902349323829
 21
321.40084282791707
 31
0.0
  0
LINE
  5
5CA
  8
7
  6
CONTINUOUS
 10
-9.0419023493237773
 20
323.56784282791699
 30
0.0
 11
-9.0419023493237773
 21
323.56784282791699
 31
0.0
  0
LINE
  5
5CB
  8
7
  6
CONTINUOUS
 10
-9.2999023493237019
 20
323.557842827917
 30
0.0
 11
-9.0419023493237773
 21
323.56784282791699
 31
0.0
  0
LINE
  5
5CC
  8
7
  6
CONTINUOUS
 10
-9.5589023493237164
 20
323.54684282791698
 30
0.0
 11
-9.2999023493237019
 21
323.557842827917
 31
0.0
  0
LINE
  5
5CD
  8
7
  6
CONTINUOUS
 10
-9.8169023493237546
 20
323.53384282791689
 30
0.0
 11
-9.5589023493237164
 21
323.54684282791698
 31
0.0
  0
LINE
  5
5CE
  8
7
  6
CONTINUOUS
 10
-10.074902349323789
 20
323.51784282791698
 30
0.0
 11
-9.8169023493237546
 21
323.53384282791689
 31
0.0
  0
LINE
  5
5CF
  8
7
  6
CONTINUOUS
 10
-10.80690234932376
 20
323.45184282791701
 30
0.0
 11
-10.074902349323789
 21
323.51784282791698
 31
0.0
  0
LINE
  5
5D0
  8
7
  6
CONTINUOUS
 10
-11.53690234932378
 20
323.35984282791691
 30
0.0
 11
-10.80690234932376
 21
323.45184282791701
 31
0.0
  0
LINE
  5
5D1
  8
7
  6
CONTINUOUS
 10
-12.26490234932384
 20
323.24984282791701
 30
0.0
 11
-11.53690234932378
 21
323.35984282791691
 31
0.0
  0
LINE
  5
5D2
  8
7
  6
CONTINUOUS
 10
-12.991902349323709
 20
323.12884282791691
 30
0.0
 11
-12.26490234932384
 21
323.24984282791701
 31
0.0
  0
LINE
  5
5D3
  8
7
  6
CONTINUOUS
 10
-14.10490234932376
 20
322.93184282791702
 30
0.0
 11
-12.991902349323709
 21
323.12884282791691
 31
0.0
  0
LINE
  5
5DC
  8
0
 10
-259.04190234932378
 20
323.56784282791699
 30
0.0
 11
-268.8523582374068
 21
323.56784282791699
 31
0.0
  0
LINE
  5
5DD
  8
0
 10
-268.8523582374068
 20
323.56784282791699
 30
0.0
 11
-268.8523582374068
 21
253.4689411634441
 31
0.0
  0
LINE
  5
5DE
  8
0
 10
-9.0419023493237773
 20
323.56784282791699
 30
0.0
 11
-9.0402913078439724
 21
253.90466100543881
 31
0.0
  0
LINE
  5
5DF
  8
0
 10
-259.19023640941771
 20
256.4689411634439
 30
0.0
 11
-228.79023640941759
 21
256.4689411634439
 31
0.0
  0
LINE
  5
5E0
  8
0
 10
-259.19023640941771
 20
259.46894116344401
 30
0.0
 11
-228.79023640941759
 21
259.46894116344401
 31
0.0
  0
LINE
  5
5E3
  8
0
 10
-259.19023640941771
 20
256.4689411634439
 30
0.0
 11
-259.19023640941771
 21
259.46894116344401
 31
0.0
  0
LINE
  5
5E4
  8
0
 10
-228.7902364094177
 20
256.4689411634439
 30
0.0
 11
-228.7902364094177
 21
259.46894116344401
 31
0.0
  0
LINE
  5
5E5
  8
0
 10
-188.0250808044739
 20
227.83580229518469
 30
0.0
 11
-138.815032248156
 21
227.83580229518469
 31
0.0
  0
LINE
  5
5E6
  8
0
 10
-188.0250808044739
 20
167.83580229518469
 30
0.0
 11
-138.815032248156
 21
167.83580229518469
 31
0.0
  0
CIRCLE
  5
5E7
  8
0
 10
-145.63612345849381
 20
280.72264024942911
 30
0.0
 40
16.604305406669479
  0
CIRCLE
  5
5E8
  8
0
 10
-68.652520459353582
 20
282.23087966183863
 30
0.0
 40
16.604305406669479
  0
LINE
  5
5EA
  8
0
 10
-233.98316993110211
 20
310.28641682423603
 30
0.0
 11
-258.98281024180631
 21
310.42052251171629
 31
0.0
  0
LINE
  5
5EB
  8
0
 10
-258.98281024180631
 20
310.42052251171629
 30
0.0
 11
-259.01499560680162
 21
304.42060883714743
 31
0.0
  0
LINE
  5
5EC
  8
0
 10
-259.01499560680162
 20
304.42060883714743
 30
0.0
 11
-234.0153552960974
 21
304.28650314966723
 31
0.0
  0
LINE
  5
5ED
  8
0
 10
-234.0153552960974
 20
304.28650314966723
 30
0.0
 11
-233.98316993110211
 21
310.28641682423603
 31
0.0
  0
LINE
  5
5EE
  8
0
 10
-47.940842971037178
 20
304.99439635102021
 30
0.0
 11
-23.01590540690778
 21
303.0585535308897
 31
0.0
  0
LINE
  5
5EF
  8
0
 10
-22.551303130076452
 20
309.04053854628069
 30
0.0
 11
-47.476240694205842
 21
310.97638136641132
 31
0.0
  0
LINE
  5
5F0
  8
0
 10
-47.476240694205842
 20
310.97638136641132
 30
0.0
 11
-47.940842971037178
 21
304.99439635102021
 31
0.0
  0
LINE
  5
5F1
  8
0
 10
-23.01590540690778
 20
303.0585535308897
 30
0.0
 11
-22.551303130076452
 21
309.04053854628069
 31
0.0
  0
LINE
  5
5F9
  8
0
 10
570.47887919407356
 20
74.812242079579619
 30
0.0
 11
570.47887919407356
 21
-25.187757920420381
 31
0.0
  0
LINE
  5
5FB
  8
0
 10
570.47887919407356
 20
-25.187757920420381
 30
0.0
 11
800.47887919407356
 21
-25.187757920420381
 31
0.0
  0
LINE
  5
5FD
  8
0
 10
570.47887919407356
 20
74.812242079579619
 30
0.0
 11
620.47887919407356
 21
74.812242079579619
 31
0.0
  0
ARC
  5
5FE
  8
0
 10
598.39542020513636
 20
-176.93798410050729
 30
0.0
 40
252.71694747808471
 50
36.90392945545765
 51
84.986862346388065
  0
ARC
  5
602
  8
0
 10
438.6709369208441
 20
-176.93798410050729
 30
0.0
 40
252.71694747808471
 50
95.013137653611935
 51
143.0960705445423
  0
LINE
  5
603
  8
0
 10
466.5874779319069
 20
74.812242079579619
 30
0.0
 11
466.5874779319069
 21
-25.187757920420381
 31
0.0
  0
LINE
  5
604
  8
0
 10
466.5874779319069
 20
-25.187757920420381
 30
0.0
 11
236.5874779319069
 21
-25.187757920420381
 31
0.0
  0
LINE
  5
605
  8
0
 10
466.5874779319069
 20
74.812242079579619
 30
0.0
 11
416.5874779319069
 21
74.812242079579619
 31
0.0
  0
LINE
  5
60F
  8
0
 10
-52.488392583396951
 20
-218.1068341042515
 30
0.0
 11
113.028301576045
 21
-227.5734380318267
 31
0.0
  0
LINE
  5
610
  8
0
 10
-52.48839258339693
 20
-282.96294901451478
 30
0.0
 11
113.0283015760449
 21
-273.49634508693958
 31
0.0
  0
LINE
  5
619
  8
0
 10
-52.488392583396951
 20
-218.1068341042515
 30
0.0
 11
-52.48839258339693
 21
-282.96294901451478
 31
0.0
  0
LINE
  5
61A
  8
0
 10
113.028301576045
 20
-227.5734380318267
 30
0.0
 11
113.0283015760449
 21
-273.49634508693958
 31
0.0
  0
LINE
  5
61B
  8
0
 10
45.124752455042191
 20
-238.642587563543
 30
0.0
 11
74.624752455042199
 21
-238.642587563543
 31
0.0
  0
LINE
  5
61C
  8
0
 10
74.624752455042199
 20
-238.642587563543
 30
0.0
 11
74.624752455042199
 21
-251.84258756354299
 31
0.0
  0
LINE
  5
61D
  8
0
 10
74.624752455042199
 20
-251.84258756354299
 30
0.0
 11
45.124752455042191
 21
-251.84258756354299
 31
0.0
  0
LINE
  5
61E
  8
0
 10
45.124752455042191
 20
-251.84258756354299
 30
0.0
 11
45.124752455042191
 21
-238.642587563543
 31
0.0
  0
LINE
  5
61F
  8
0
 10
7.2539530004014523
 20
-248.97138947023799
 30
0.0
 11
36.753953000401459
 21
-248.97138947023799
 31
0.0
  0
LINE
  5
620
  8
0
 10
36.753953000401459
 20
-262.1713894702379
 30
0.0
 11
7.2539530004014523
 21
-262.1713894702379
 31
0.0
  0
LINE
  5
621
  8
0
 10
7.2539530004014523
 20
-262.1713894702379
 30
0.0
 11
7.2539530004014523
 21
-248.97138947023799
 31
0.0
  0
LINE
  5
622
  8
0
 10
36.753953000401459
 20
-248.97138947023799
 30
0.0
 11
36.753953000401459
 21
-262.1713894702379
 31
0.0
  0
POLYLINE
  5
623
  8
0
 66
     1
 10
0.0
 20
0.0
 30
0.0
 70
     1
  0
VERTEX
  5
742
  8
0
 10
-43.006801278790128
 20
-230.4726558569412
 30
0.0
  0
VERTEX
  5
743
  8
0
 10
-6.6479562591575814
 20
-230.4726558569412
 30
0.0
  0
VERTEX
  5
744
  8
0
 10
-6.6479562591575814
 20
-270.36319666122222
 30
0.0
  0
VERTEX
  5
745
  8
0
 10
-43.006801278790128
 20
-270.36319666122222
 30
0.0
  0
SEQEND
  5
746
  8
0
  0
DIMENSION
  5
624
  8
0
  2
*D2
 10
113.028301576045
 20
-200.26191185887001
 30
0.0
 11
30.269954496324029
 21
-195.63691185887001
 31
0.0
 70
     0
 13
-52.488392583396951
 23
-218.1068341042515
 33
0.0
 14
113.028301576045
 24
-227.5734380318267
 34
0.0
1001
ACAD
1000
DSTYLE
1002
{
1070
   287
1070
     3
1070
   140
1040
8.0
1070
   274
1070
     2
1070
   279
1070
     0
1070
   284
1070
     0
1070
   285
1070
     0
1070
   286
1070
     0
1002
}
  0
DIMENSION
  5
632
  8
0
  2
*D3
 10
-70.661010347016585
 20
-218.1068341042515
 30
0.0
 11
-75.286010347016557
 21
-250.53489155938311
 31
0.0
 70
     0
 13
-52.48839258339693
 23
-282.96294901451478
 33
0.0
 14
-52.488392583396951
 24
-218.1068341042515
 34
0.0
 50
270.0
1001
ACAD
1000
DSTYLE
1002
{
1070
   287
1070
     3
1070
   140
1040
8.0
1070
   274
1070
     2
1070
   279
1070
     0
1070
   284
1070
     0
1070
   285
1070
     0
1070
   286
1070
     0
1002
}
  0
DIMENSION
  5
63F
  8
0
  2
*D4
 10
74.624752455042199
 20
-266.43194358361671
 30
0.0
 11
59.874752455042199
 21
-261.8069435836166
 31
0.0
 70
     0
 13
45.124752455042191
 23
-251.84258756354299
 33
0.0
 14
74.624752455042199
 24
-251.84258756354299
 34
0.0
1001
ACAD
1000
DSTYLE
1002
{
1070
   287
1070
     3
1070
   140
1040
8.0
1070
   274
1070
     2
1070
   279
1070
     0
1070
   284
1070
     0
1070
   285
1070
     0
1070
   286
1070
     0
1002
}
  0
DIMENSION
  5
64C
  8
0
  2
*D5
 10
89.191472180458277
 20
-238.642587563543
 30
0.0
 11
84.566472180458319
 21
-224.85092089687629
 31
0.0
 70
     0
 13
74.624752455042199
 23
-251.84258756354299
 33
0.0
 14
74.624752455042199
 24
-238.642587563543
 34
0.0
 50
270.0
1001
ACAD
1000
DSTYLE
1002
{
1070
   287
1070
     3
1070
   140
1040
8.0
1070
   274
1070
     2
1070
   279
1070
     0
1070
   284
1070
     0
1070
   285
1070
     0
1070
   286
1070
     0
1002
}
  0
DIMENSION
  5
659
  8
0
  2
*D6
 10
135.32033161415069
 20
-227.5734380318267
 30
0.0
 11
130.6953316141508
 21
-200.4484380318267
 31
0.0
 70
     0
 13
113.0283015760449
 23
-273.49634508693958
 33
0.0
 14
113.028301576045
 24
-227.5734380318267
 34
0.0
 50
270.0
1001
ACAD
1000
DSTYLE
1002
{
1070
   287
1070
     3
1070
   140
1040
8.0
1070
   274
1070
     2
1070
   279
1070
     0
1070
   284
1070
     0
1070
   285
1070
     0
1070
   286
1070
     0
1002
}
  0
ENDSEC
  0
EOF
